Ligas Mayores (1989) Full 1080p Latino

2.291 vistas
1 estrella2 estrellas3 estrellas4 estrellas5 estrellas (1 votos, promedio: 5,00 de 5)
Cargando…

Información de Ligas Mayores (1989) Full 1080p Latino

Datos de la película

  • Calidad: Full 1080p
  • Audio: Español Latino AC3 2.0 BLURAY - Ingles AC3 5.1 BLURAY
  • Subtitulos: Español Latino PGS - Ingles PGS
  • Resolución: 1920x1080p
  • Formato: MKV
  • Codec: H.264
  • Encoder: Dracarys
  • Mediainfo: Clic para Mostrar Datos Ver
  • Format                                   : Matroska
    Format version                           : Version 2
    File size                                : 7.86 GiB
    Duration                                 : 1 h 46 min
    Overall bit rate                         : 10.6 Mb/s
    Movie name                               : CinemaniaHDD.net
    Encoded date                             : UTC 2018-07-05 10:07:46 / UTC 2018-06-29T11:17:04Z
    Writing application                      : mkvmerge v5.7.0 ('The Whirlwind') built on Jul  8 2012 20:08:51
    Writing library                          : libebml v1.2.3 + libmatroska v1.3.0 / Lavf57.7.2

    Video
    ID                                       : 1
    Format                                   : AVC
    Format/Info                              : Advanced Video Codec
    Format profile                           : [email protected]
    Format settings                          : CABAC / 4 Ref Frames
    Format settings, CABAC                   : Yes
    Format settings, RefFrames               : 4 frames
    Muxing mode                              : Header stripping
    Codec ID                                 : V_MPEG4/ISO/AVC
    Duration                                 : 1 h 46 min
    Bit rate                                 : 9 481 kb/s
    Width                                    : 1 920 pixels
    Height                                   : 1 080 pixels
    Display aspect ratio                     : 16:9
    Frame rate mode                          : Constant
    Frame rate                               : 23.976 (24000/1001) FPS
    Color space                              : YUV
    Chroma subsampling                       : 4:2:0
    Bit depth                                : 8 bits
    Scan type                                : Progressive
    Bits/(Pixel*Frame)                       : 0.191
    Stream size                              : 7.06 GiB (90%)
    Title                                    : Ligas Mayores (1989) Full 1080p Latino
    Writing library                          : x264 core 155 r2893 b00bcaf
    Encoding settings                        : cabac=1 / ref=4 / deblock=1:0:0 / analyse=0x3:0x133 / me=esa / subme=10 / psy=1 / psy_rd=1.00:0.00 / mixed_ref=1 / me_range=24 / chroma_me=1 / trellis=2 / 8x8dct=1 / cqm=0 / deadzone=21,11 / fast_pskip=1 / chroma_qp_offset=-2 / threads=24 / lookahead_threads=4 / sliced_threads=0 / nr=0 / decimate=1 / interlaced=0 / bluray_compat=0 / constrained_intra=0 / bframes=8 / b_pyramid=2 / b_adapt=2 / b_bias=0 / direct=3 / weightb=1 / open_gop=0 / weightp=2 / keyint=240 / keyint_min=24 / scenecut=40 / intra_refresh=0 / rc_lookahead=60 / rc=crf / mbtree=1 / crf=20.0 / qcomp=0.60 / qpmin=0 / qpmax=69 / qpstep=4 / vbv_maxrate=62500 / vbv_bufsize=78125 / crf_max=0.0 / nal_hrd=none / filler=0 / ip_ratio=1.40 / aq=1:1.00
    Language                                 : English
    Default                                  : Yes
    Forced                                   : No
    Color range                              : Limited
    Color primaries                          : BT.709
    Transfer characteristics                 : BT.709
    Matrix coefficients                      : BT.709

    Audio #1
    ID                                       : 2
    Format                                   : AC-3
    Format/Info                              : Audio Coding 3
    Format settings, Endianness              : Big
    Muxing mode                              : Header stripping
    Codec ID                                 : A_AC3
    Duration                                 : 1 h 46 min
    Bit rate mode                            : Constant
    Bit rate                                 : 224 kb/s
    Channel(s)                               : 2 channels
    Channel positions                        : Front: L R
    Sampling rate                            : 48.0 kHz
    Frame rate                               : 31.250 FPS (1536 SPF)
    Bit depth                                : 16 bits
    Compression mode                         : Lossy
    Stream size                              : 171 MiB (2%)
    Language                                 : Spanish
    Service kind                             : Complete Main
    Default                                  : Yes
    Forced                                   : No

    Audio #2
    ID                                       : 3
    Format                                   : AC-3
    Format/Info                              : Audio Coding 3
    Format settings, Endianness              : Big
    Muxing mode                              : Header stripping
    Codec ID                                 : A_AC3
    Duration                                 : 1 h 46 min
    Bit rate mode                            : Constant
    Bit rate                                 : 640 kb/s
    Channel(s)                               : 6 channels
    Channel positions                        : Front: L C R, Side: L R, LFE
    Sampling rate                            : 48.0 kHz
    Frame rate                               : 31.250 FPS (1536 SPF)
    Bit depth                                : 16 bits
    Compression mode                         : Lossy
    Stream size                              : 488 MiB (6%)
    Language                                 : English
    Service kind                             : Complete Main
    Default                                  : No
    Forced                                   : No

    Text #1
    ID                                       : 4
    Format                                   : PGS
    Muxing mode                              : zlib
    Codec ID                                 : S_HDMV/PGS
    Codec ID/Info                            : Picture based subtitle format used on BDs/HD-DVDs
    Language                                 : English
    Default                                  : No
    Forced                                   : No

    Text #2
    ID                                       : 5
    Format                                   : PGS
    Muxing mode                              : zlib
    Codec ID                                 : S_HDMV/PGS
    Codec ID/Info                            : Picture based subtitle format used on BDs/HD-DVDs
    Language                                 : Spanish
    Default                                  : No
    Forced                                   : No

    Menu
    00:00:00.000                             : :Chapter 1
    00:03:26.498                             : :Chapter 2
    00:06:32.267                             : :Chapter 3
    00:12:41.719                             : :Chapter 4
    00:17:12.031                             : :Chapter 5
    00:25:48.672                             : :Chapter 6
    00:33:29.132                             : :Chapter 7
    00:42:08.026                             : :Chapter 8
    00:50:58.305                             : :Chapter 9
    00:56:07.739                             : :Chapter 10
    01:00:56.194                             : :Chapter 11
    01:07:58.533                             : :Chapter 12
    01:14:29.256                             : :Chapter 13
    01:19:52.162                             : :Chapter 14
    01:27:51.099                             : :Chapter 15
    01:34:13.022                             : :Chapter 16
    01:40:39.075                             : :Chapter 17

  • Peso: 7.86 GiB

Sinopsis

Los Indians de Cleveland son el peor equipo de béisbol de la liga nacional. Su nueva propietaria, una antigua show girl, quiere que acaben los últimos de la liga para poder trasladarse a Miami, pero ahora el equipo empieza a ganar.

Ficha técnica

  • Titulo original: Major League
  • Fecha de lanzamiento: 16-02-1989 (United States of America)
  • Director: David S. Ward
  • Género: Comedia, FULL 1080p Plateadas
  • Puntuación: 5.0 1 votos
  • Duración:
    1 h 46 min

Video trailer de la película

Enlaces de descarga

Rip de Bluray

Descargar Ligas Mayores (1989) Full 1080p Latino




Aportes de DPeliculasHDmega la pass es:dpeliculashdmega.org Aportes de CinemaniaHD la pass es:cinemaniahdd.com
Guardado en : Comedia , FULL 1080p Plateadas

Películas relacionadas

  • The Final Wish (2018) Full 1080p Subtitulado

    2019
    The Final Wish (2018) Full 1080p Subtitulado

    0.0 1h 35m 2019

    Descargar The Final Wish (2018) Full 1080p Subtitulado. Aaron (Michael Welch) es un abogado con problemas...

    Director: Timothy Woodward Jr.

    Género: FULL 1080p Plateadas

    Actores: Tony Todd

  • La nave del terror (1997) Full 1080p Latino

    1997
    La nave del terror (1997) Full 1080p Latino

    0.0 1h 36m 1997

    En el año 2047 una nave de rescate, la "Lewis & Clark", es enviada a investigar la misteriosa reaparición...

    Director: Paul W.S. Anderson

    Género: Ciencia ficción

    Actores: Teresa May

  • Man On A Ledge (2012) Full (Open Matte) 1080P Latino

    2012
    Man On A Ledge (2012) Full (Open Matte) 1080P Latino

    0.0 1h 42m 2012

    Nick Cassidy (Sam Worthington), un antiguo agente de policía, se escapa de la cárcel y se dirige al...

    Director: Melissa Kalbfus

    Género: Acción

    Actores: William Sadler

Comentarios 3
  • ALTERRAZDO - 10 julio, 2018

    Gracias justo la peli que quera ver en buena calidad!

  • ARTURO TAPIA - 10 julio, 2018

    Disculpa pero no hay link para descarga gratuita en ambas pide acceso de miembro Vip

    • Dracarys - 10 julio, 2018

      arreglado…