Liga de la Justicia (2017) Full HD 1080p Latino – CMHDD

104 vistas
1 estrella2 estrellas3 estrellas4 estrellas5 estrellas (Ninguna valoración todavía)
Cargando...

Información de Liga de la Justicia (2017) Full HD 1080p Latino – CMHDD

Datos de la película

  • Calidad: Full 1080p
  • Audio: Español Latino AC3 5.1 BLURAY - Ingles AC3 5.1 BLURAY
  • Subtitulos: Español Latino PGS
  • Resolución: 1920x1080p
  • Formato: MKV
  • Codec: H.264
  • Encoder: Dracarys
  • Mediainfo: Clic para Mostrar Datos Ver
  • Format                      : Matroska
    Format version              : Version 4
    File size                   : 11.2 GiB
    Duration                    : 2 h 0 min
    Overall bit rate            : 13.4 Mb/s
    Movie name                  : CinemaniaHDD.com
    Encoded date                : UTC 2018-03-01 22:20:31 / UTC 2018-03-01T16:22:01Z
    Writing application         : mkvmerge v15.0.0 ('Duel with the Devil') 64-bit
    Writing library             : libebml v1.3.5 + libmatroska v1.4.5 / Lavf57.7.2

    Video
    ID                          : 1
    Format                      : AVC
    Format/Info                 : Advanced Video Codec
    Format profile              : High@L4.1
    Format settings             : CABAC / 4 Ref Frames
    Format settings, CABAC      : Yes
    Format settings, Reference  : 4 frames
    Codec ID                    : V_MPEG4/ISO/AVC
    Duration                    : 2 h 0 min
    Bit rate                    : 12.2 Mb/s
    Width                       : 1 920 pixels
    Height                      : 1 080 pixels
    Display aspect ratio        : 16:9
    Frame rate mode             : Constant
    Frame rate                  : 23.976 (24000/1001) FPS
    Color space                 : YUV
    Chroma subsampling          : 4:2:0
    Bit depth                   : 8 bits
    Scan type                   : Progressive
    Bits/(Pixel*Frame)          : 0.246
    Stream size                 : 10.3 GiB (91%)
    Title                       : Liga de la Justicia (2017) Full 1080p Latino
    Writing library             : x264 core 148 r2708 86b7198
    Encoding settings           : cabac=1 / ref=4 / deblock=1:0:0 / analyse=0x3:0x133 / me=esa / subme=10 / psy=1 / psy_rd=1.00:0.00 / mixed_ref=1 / me_range=24 / chroma_me=1 / trellis=2 / 8x8dct=1 / cqm=0 / deadzone=21,11 / fast_pskip=1 / chroma_qp_offset=-2 / threads=34 / lookahead_threads=5 / sliced_threads=0 / nr=0 / decimate=1 / interlaced=0 / bluray_compat=0 / constrained_intra=0 / bframes=8 / b_pyramid=2 / b_adapt=2 / b_bias=0 / direct=3 / weightb=1 / open_gop=0 / weightp=2 / keyint=240 / keyint_min=24 / scenecut=40 / intra_refresh=0 / rc_lookahead=60 / rc=crf / mbtree=1 / crf=20.0 / qcomp=0.60 / qpmin=0 / qpmax=69 / qpstep=4 / vbv_maxrate=62500 / vbv_bufsize=78125 / crf_max=0.0 / nal_hrd=none / filler=0 / ip_ratio=1.40 / aq=1:1.00
    Language                    : English
    Default                     : Yes
    Forced                      : No
    Color range                 : Limited
    Color primaries             : BT.709
    Transfer characteristics    : BT.709
    Matrix coefficients         : BT.709
    Statistics Tags Issue       : mkvmerge v15.0.0 ('Duel with the Devil') 64-bit 2018-03-01 22:20:31 / mkvmerge v15.0.0 ('Duel with the Devil') 64-bit 2018-03-01 22:20:31 / UTC 2018-03-01T16:22:01Z
    FromStats_BitRate           : 12488707
    FromStats_Duration          : 02:00:02.612000000
    FromStats_FrameCount        : 172690
    FromStats_StreamSize        : 11243914736
    Duration_Source             : General_Duration

    Audio #1
    ID                          : 2
    Format                      : AC-3
    Format/Info                 : Audio Coding 3
    Commercial name             : Dolby Digital
    Codec ID                    : A_AC3
    Duration                    : 2 h 0 min
    Bit rate mode               : Constant
    Bit rate                    : 448 kb/s
    Channel(s)                  : 6 channels
    Channel layout              : L R C LFE Ls Rs
    Sampling rate               : 48.0 kHz
    Frame rate                  : 31.250 FPS (1536 SPF)
    Compression mode            : Lossy
    Stream size                 : 385 MiB (3%)
    Language                    : Spanish
    Service kind                : Complete Main
    Default                     : Yes
    Forced                      : No
    Statistics Tags Issue       : mkvmerge v15.0.0 ('Duel with the Devil') 64-bit 2018-03-01 22:20:31 / mkvmerge v15.0.0 ('Duel with the Devil') 64-bit 2018-03-01 22:20:31 / UTC 2018-03-01T16:22:01Z
    FromStats_BitRate           : 448000
    FromStats_Duration          : 02:00:02.624000000
    FromStats_FrameCount        : 225082
    FromStats_StreamSize        : 403346944
    Duration_Source             : General_Duration

    Audio #2
    ID                          : 3
    Format                      : AC-3
    Format/Info                 : Audio Coding 3
    Commercial name             : Dolby Digital
    Codec ID                    : A_AC3
    Duration                    : 2 h 0 min
    Bit rate mode               : Constant
    Bit rate                    : 448 kb/s
    Channel(s)                  : 6 channels
    Channel layout              : L R C LFE Ls Rs
    Sampling rate               : 48.0 kHz
    Frame rate                  : 31.250 FPS (1536 SPF)
    Compression mode            : Lossy
    Stream size                 : 385 MiB (3%)
    Language                    : English
    Service kind                : Complete Main
    Default                     : No
    Forced                      : No
    Statistics Tags Issue       : mkvmerge v15.0.0 ('Duel with the Devil') 64-bit 2018-03-01 22:20:31 / mkvmerge v15.0.0 ('Duel with the Devil') 64-bit 2018-03-01 22:20:31 / UTC 2018-03-01T16:22:01Z
    FromStats_BitRate           : 448000
    FromStats_Duration          : 02:00:02.624000000
    FromStats_FrameCount        : 225082
    FromStats_StreamSize        : 403346944
    Duration_Source             : General_Duration

    Text #1
    ID                          : 4
    Format                      : PGS
    Muxing mode                 : zlib
    Codec ID                    : S_HDMV/PGS
    Codec ID/Info               : Picture based subtitle format used on BDs/HD-DVDs
    Language                    : English
    Default                     : No
    Forced                      : No
    Statistics Tags Issue       : mkvmerge v15.0.0 ('Duel with the Devil') 64-bit 2018-03-01 22:20:31 / mkvmerge v15.0.0 ('Duel with the Devil') 64-bit 2018-03-01 22:20:31 / UTC 2018-03-01T16:22:01Z
    FromStats_BitRate           : 30806
    FromStats_Duration          : 01:59:06.515000000
    FromStats_FrameCount        : 3014
    FromStats_StreamSize        : 27520117

    Text #2
    ID                          : 5
    Format                      : PGS
    Muxing mode                 : zlib
    Codec ID                    : S_HDMV/PGS
    Codec ID/Info               : Picture based subtitle format used on BDs/HD-DVDs
    Language                    : Spanish
    Default                     : No
    Forced                      : No
    Statistics Tags Issue       : mkvmerge v15.0.0 ('Duel with the Devil') 64-bit 2018-03-01 22:20:31 / mkvmerge v15.0.0 ('Duel with the Devil') 64-bit 2018-03-01 22:20:31 / UTC 2018-03-01T16:22:01Z
    FromStats_BitRate           : 25484
    FromStats_Duration          : 01:59:04.971000000
    FromStats_FrameCount        : 2498
    FromStats_StreamSize        : 22760496

    Menu
    00:00:00.000                : :Chapter 1
    00:10:56.156                : :Chapter 2
    00:19:16.489                : :Chapter 3
    00:30:41.673                : :Chapter 4
    00:40:19.667                : :Chapter 5
    00:49:56.535                : :Chapter 6
    01:01:26.975                : :Chapter 7
    01:09:41.552                : :Chapter 8
    01:19:18.587                : :Chapter 9
    01:30:34.512                : :Chapter 10
    01:40:33.569                : :Chapter 11
    01:48:43.058                : :Chapter 12

  • Peso: 11.2 GiB

Sinopsis

Motivado por la fe que había recuperado en la humanidad e inspirado por la acción altruista de Superman, Bruce Wayne recluta la ayuda de su nueva aliada, Diana Prince, para enfrentarse a un enemigo aún mayor. Juntos, Batman y Wonder Woman se mueven rápidamente para intentar encontrar y reclutar un equipo de metahumanos que combata esta nueva amenaza. El problema es que a pesar de la formación de esta liga de héroes sin precedentes (Batman, Wonder Woman, Aquaman, Cyborg y Flash) puede que sea demasiado tarde para salvar el planeta de una amenaza de proporciones catastróficas.

 

Latino: AC3 5.1  –  Ingles: TrueHD 7.1

Ficha técnica

Video trailer de la película

Enlaces de descarga

Rip de Bluray

Descargar Liga de la Justicia (2017) Full HD 1080p Latino – CMHDD




Aportes de DPeliculasHDmega la pass es:dpeliculashdmega.org Aportes de CinemaniaHD la pass es:cinemaniahdd.com

Películas relacionadas

  • Nadie (2021) REMUX 1080p Latino

    Nadie (2021) REMUX 1080p Latino

    2021
    Nadie (2021) REMUX 1080p Latino

    5.0 1h 32m 2021

    Descargar Nadie (2021) REMUX 1080p Latino. Hutch Mansell, un padre de familia que aguanta con resignación...

    Director: Ilya Naishuller

    Género: Acción

    Actores: Yulia Guzhva

  • Godzilla vs Kong (2021) REMUX 4K HDR Latino – CMHDD

    Godzilla vs Kong (2021) REMUX 4K HDR Latino – CMHDD

    2021
    Godzilla vs Kong (2021) REMUX 4K HDR Latino – CMHDD

    5.0 1h 53m 2021

    Godzilla y Kong, dos de las fuerzas más poderosas de un planeta habitado por todo tipo de aterradoras...

    Director: Thomas Robinson Harper

    Género: Acción

    Actores: Victoria Liu

Liga de la Justicia (2017) Full HD 1080p Latino – CMHDD pelicula full hd, Liga de la Justicia (2017) Full HD 1080p Latino – CMHDD mega latino, Liga de la Justicia (2017) Full HD 1080p Latino – CMHDD 4k latino, Liga de la Justicia (2017) Full HD 1080p Latino – CMHDD pelicula completa, Liga de la Justicia (2017) Full HD 1080p Latino – CMHDD descargar gratis, descargar Liga de la Justicia (2017) Full HD 1080p Latino – CMHDD pelicula latino, Liga de la Justicia (2017) Full HD 1080p Latino – CMHDD 1 link mega, Liga de la Justicia (2017) Full HD 1080p Latino – CMHDD 1 link google drive, Liga de la Justicia (2017) Full HD 1080p Latino – CMHDD hd 1080p latino.
Comentarios 2
  • Jairo - 17 marzo, 2021

    Suban la original :/ osea la de Zack Snyder por favor

    • CinemaniaHDD - 18 marzo, 2021

      subida