×

¿Problemas para descargar con Mozilla, EDGE? Deshabilita la opción "Abrir vinculos en una pestaña nueva" tal como lo muestra ésta imagen.

Life of Pi (2012) REMUX 4K HDR Latino – CMHDD

195 vistas

Información de Life of Pi (2012) REMUX 4K HDR Latino – CMHDD

Datos de la película

  • Calidad: 4K HDR
  • Audio: Español Latino AC3 5.1 BLURAY - Ingles DTS-HD Master 7.1 BLURAY
  • Subtitulos: Español Latino PGS
  • Resolución: 3840x2160p
  • Formato: MKV
  • Codec: H.264
  • Encoder: Dracarys
  • Mediainfo: Clic para Mostrar Datos Ver
  • Format                      : Matroska
    Format version              : Version 4
    File size                   : 44.7 GiB
    Duration                    : 2 h 7 min
    Overall bit rate mode       : Variable
    Overall bit rate            : 50.3 Mb/s
    Movie name                  : Life of Pi (2012) REMUX 4K HDR Latino - CMHDD
    Encoded date                : UTC 2021-11-15 23:59:07
    Writing application         : mkvmerge v17.0.0 ('Be Ur Friend') 64-bit
    Writing library             : libebml v1.3.5 + libmatroska v1.4.8

    Video
    ID                          : 1
    Format                      : HEVC
    Format/Info                 : High Efficiency Video Coding
    Format profile              : Main 10@L5.1@High
    HDR format                  : SMPTE ST 2086, HDR10 compatible
    Codec ID                    : V_MPEGH/ISO/HEVC
    Duration                    : 2 h 7 min
    Bit rate                    : 44.7 Mb/s
    Width                       : 3 840 pixels
    Height                      : 2 160 pixels
    Display aspect ratio        : 16:9
    Frame rate mode             : Constant
    Frame rate                  : 23.976 (24000/1001) FPS
    Color space                 : YUV
    Chroma subsampling          : 4:2:0 (Type 2)
    Bit depth                   : 10 bits
    Bits/(Pixel*Frame)          : 0.225
    Stream size                 : 39.7 GiB (89%)
    Writing library             : ATEME Titan File 3.7.0 (4.7.0.2004)
    Default                     : Yes
    Forced                      : No
    Color range                 : Limited
    Color primaries             : BT.2020
    Transfer characteristics    : PQ
    Matrix coefficients         : BT.2020 non-constant
    Mastering display color pri : Display P3
    Mastering display luminance : min: 0.0000 cd/m2, max: 1100 cd/m2

    Audio #1
    ID                          : 2
    Format                      : DTS ES XLL
    Format/Info                 : Digital Theater Systems
    Commercial name             : DTS-HD Master Audio
    Codec ID                    : A_DTS
    Duration                    : 2 h 7 min
    Bit rate mode               : Variable
    Bit rate                    : 4 698 kb/s
    Channel(s)                  : 8 channels
    Channel layout              : C L R Ls Rs LFE Lb Rb
    Sampling rate               : 48.0 kHz
    Frame rate                  : 93.750 FPS (512 SPF)
    Bit depth                   : 24 bits
    Compression mode            : Lossless
    Delay relative to video     : 2 ms
    Stream size                 : 4.17 GiB (9%)
    Language                    : English
    Default                     : No
    Forced                      : No

    Audio #2
    ID                          : 3
    Format                      : AC-3
    Format/Info                 : Audio Coding 3
    Commercial name             : Dolby Digital
    Codec ID                    : A_AC3
    Duration                    : 2 h 7 min
    Bit rate mode               : Constant
    Bit rate                    : 448 kb/s
    Channel(s)                  : 6 channels
    Channel layout              : L R C LFE Ls Rs
    Sampling rate               : 48.0 kHz
    Frame rate                  : 31.250 FPS (1536 SPF)
    Compression mode            : Lossy
    Delay relative to video     : 23 ms
    Stream size                 : 407 MiB (1%)
    Language                    : English
    Service kind                : Complete Main
    Default                     : No
    Forced                      : No

    Audio #3
    ID                          : 4
    Format                      : AC-3
    Format/Info                 : Audio Coding 3
    Commercial name             : Dolby Digital
    Codec ID                    : A_AC3
    Duration                    : 2 h 7 min
    Bit rate mode               : Constant
    Bit rate                    : 448 kb/s
    Channel(s)                  : 6 channels
    Channel layout              : L R C LFE Ls Rs
    Sampling rate               : 48.0 kHz
    Frame rate                  : 31.250 FPS (1536 SPF)
    Compression mode            : Lossy
    Delay relative to video     : 23 ms
    Stream size                 : 407 MiB (1%)
    Language                    : Spanish
    Service kind                : Complete Main
    Default                     : Yes
    Forced                      : No

    Text
    ID                          : 5
    Format                      : PGS
    Muxing mode                 : zlib
    Codec ID                    : S_HDMV/PGS
    Codec ID/Info               : Picture based subtitle format used on BDs/HD-DVDs
    Duration                    : 2 h 5 min
    Bit rate                    : 22.4 kb/s
    Count of elements           : 1882
    Stream size                 : 20.1 MiB (0%)
    Language                    : Spanish
    Default                     : No
    Forced                      : No

    Menu
    00:00:00.000                : en:Chapter 1
    00:03:58.821                : en:Chapter 2
    00:11:13.172                : en:Chapter 3
    00:15:24.923                : en:Chapter 4
    00:21:29.621                : en:Chapter 5
    00:25:44.542                : en:Chapter 6
    00:29:46.826                : en:Chapter 7
    00:31:31.014                : en:Chapter 8
    00:35:34.298                : en:Chapter 9
    00:45:24.346                : en:Chapter 10
    00:50:21.893                : en:Chapter 11
    00:54:13.333                : en:Chapter 12
    00:57:18.351                : en:Chapter 13
    01:00:07.395                : en:Chapter 14
    01:04:12.056                : en:Chapter 15
    01:09:32.084                : en:Chapter 16
    01:11:48.053                : en:Chapter 17
    01:13:34.284                : en:Chapter 18
    01:16:47.561                : en:Chapter 19
    01:21:31.177                : en:Chapter 20
    01:23:10.026                : en:Chapter 21
    01:26:30.852                : en:Chapter 22
    01:31:21.434                : en:Chapter 23
    01:34:13.856                : en:Chapter 24
    01:43:42.674                : en:Chapter 25
    01:47:38.660                : en:Chapter 26
    01:55:20.079                : en:Chapter 27
    01:59:16.273                : en:Chapter 28
     

  • Peso: 44.7 GiB

Sinopsis

Pi Patel es un muchacho cuyo padre es el dueño del zoológico de la ciudad de la India en la que viven. Su familia decide marcharse a Canadá, pero una tormenta hace naufragar el barco en el que viajan. Pi consigue salvarse gracias a una barcaza en la que también hay otro «pasajero», un tigre de Bengala al que el joven intentará domar para poder sobrevivir.

Ficha técnica

  • Titulo original: Life of Pi
  • Fecha de lanzamiento: 20-11-2012 (Canada, Taiwan, United Kingdom, United States of America)
  • Director: Ang Lee
  • Género: Acción, Aventura, Drama

Video trailer de la película

Enlaces de descarga

Rip de Bluray

Descargar Life of Pi (2012) REMUX 4K HDR Latino – CMHDD


Aportes de DPeliculasHDmega la pass es:dpeliculashdmega.org Aportes de CinemaniaHD la pass es:cinemaniahdd.com
Guardado en : Acción , Aventura , Drama

Películas relacionadas

  • Stromboli (2022) NF WEB-DL 1080p Latino

    Stromboli (2022) NF WEB-DL 1080p Latino

    2022
    Stromboli (2022) NF WEB-DL 1080p Latino

    1h 26m 2022

    Descargar Stromboli (2022) NF WEB-DL 1080p Latino. Sara, una mujer que se ha divorciado recientemente,...

    Director: Michiel van Erp

    Género: Drama

    Actores: Tim McInnerny

  • Infiesto (2023) NF WEB-DL 1080p Castellano

    Infiesto (2023) NF WEB-DL 1080p Castellano

    2023
    Infiesto (2023) NF WEB-DL 1080p Castellano

    1h 36m 2023

    Descargar Infiesto (2023) NF WEB-DL 1080p Castellano. Mientras el coronavirus trastoca sus vidas, dos...

    Director: Patxi Amezcua

    Género: Crimen

    Actores: Luis Zahera

  • Espiritu Libre (2023) NF WEB-DL 1080p Latino

    Espiritu Libre (2023) NF WEB-DL 1080p Latino

    2023
    Espiritu Libre (2023) NF WEB-DL 1080p Latino

    1h 49m 2023

    Descargar Espiritu Libre (2023) NF WEB-DL 1080p Latino. La película se basa en la increíble historia...

    Director: Sarah Spillane

    Género: Aventura

    Actores: Vivien Turner

  • Un mundo extraño (2022) HD BDRip 1080p Latino

    Un mundo extraño (2022) HD BDRip 1080p Latino

    2022
    Un mundo extraño (2022) HD BDRip 1080p Latino

    1h 42m 2022

    Descargar Un mundo extraño (2022) HD BDRip 1080p Latino. Los Clades son una familia conocida en todo...

    Director: Thai Bettistea

    Género: Animación

    Actores: Reed Buck

descargar Life of Pi (2012) REMUX 4K HDR Latino – CMHDD 4K HDR 1080p gratis, Life of Pi (2012) REMUX 4K HDR Latino – CMHDD 4K HDR mega 1 link, Life of Pi (2012) REMUX 4K HDR Latino – CMHDD 4K HDR pelicula completa, descargar Life of Pi (2012) REMUX 4K HDR Latino – CMHDD 4K HDR gratis en mega.

Life of Pi (2012) REMUX 4K HDR Latino – CMHDD pelicula full hd, Life of Pi (2012) REMUX 4K HDR Latino – CMHDD mega latino, Life of Pi (2012) REMUX 4K HDR Latino – CMHDD 4k latino, Life of Pi (2012) REMUX 4K HDR Latino – CMHDD pelicula completa, Life of Pi (2012) REMUX 4K HDR Latino – CMHDD descargar gratis, descargar Life of Pi (2012) REMUX 4K HDR Latino – CMHDD pelicula latino, Life of Pi (2012) REMUX 4K HDR Latino – CMHDD 1 link mega, Life of Pi (2012) REMUX 4K HDR Latino – CMHDD 1 link google drive, Life of Pi (2012) REMUX 4K HDR Latino – CMHDD hd 1080p latino.
Comentarios 0