×

¿Problemas para descargar con Mozilla, EDGE? Deshabilita la opción "Abrir vinculos en una pestaña nueva" tal como lo muestra ésta imagen.

Life of Pi (2012) REMUX 1080p Latino – CMHDD

224 vistas

Información de Life of Pi (2012) REMUX 1080p Latino – CMHDD

Datos de la película

  • Calidad: Full 1080p
  • Audio: Español Latino AC3 5.1 BLURAY - Ingles DTS-HD Master 7.1 BLURAY
  • Subtitulos: Español Latino PGS
  • Resolución: 1920x1080p
  • Formato: MKV
  • Codec: H.264
  • Encoder: Dracarys
  • Mediainfo: Clic para Mostrar Datos Ver
  • Format                      : Matroska
    Format version              : Version 4
    File size                   : 27.0 GiB
    Duration                    : 2 h 6 min
    Overall bit rate mode       : Variable
    Overall bit rate            : 30.4 Mb/s
    Movie name                  : Life of Pi (2012) REMUX 1080p Latino - CMHDD
    Encoded date                : UTC 2021-11-16 00:42:54
    Writing application         : mkvmerge v17.0.0 ('Be Ur Friend') 64-bit
    Writing library             : libebml v1.3.5 + libmatroska v1.4.8

    Video
    ID                          : 1
    Format                      : AVC
    Format/Info                 : Advanced Video Codec
    Format profile              : High@L4.1
    Format settings             : CABAC / 4 Ref Frames
    Format settings, CABAC      : Yes
    Format settings, Reference  : 4 frames
    Codec ID                    : V_MPEG4/ISO/AVC
    Duration                    : 2 h 6 min
    Bit rate mode               : Variable
    Bit rate                    : 24.8 Mb/s
    Maximum bit rate            : 34.2 Mb/s
    Width                       : 1 920 pixels
    Height                      : 1 080 pixels
    Display aspect ratio        : 16:9
    Frame rate mode             : Constant
    Frame rate                  : 23.976 (24000/1001) FPS
    Color space                 : YUV
    Chroma subsampling          : 4:2:0
    Bit depth                   : 8 bits
    Scan type                   : Progressive
    Bits/(Pixel*Frame)          : 0.499
    Stream size                 : 22.0 GiB (82%)
    Default                     : Yes
    Forced                      : No

    Audio #1
    ID                          : 2
    Format                      : DTS ES XLL
    Format/Info                 : Digital Theater Systems
    Commercial name             : DTS-HD Master Audio
    Codec ID                    : A_DTS
    Duration                    : 2 h 6 min
    Bit rate mode               : Variable
    Bit rate                    : 4 702 kb/s
    Channel(s)                  : 8 channels
    Channel layout              : C L R Ls Rs LFE Lb Rb
    Sampling rate               : 48.0 kHz
    Frame rate                  : 93.750 FPS (512 SPF)
    Bit depth                   : 24 bits
    Compression mode            : Lossless
    Stream size                 : 4.17 GiB (15%)
    Language                    : English
    Default                     : No
    Forced                      : No

    Audio #2
    ID                          : 3
    Format                      : AC-3
    Format/Info                 : Audio Coding 3
    Commercial name             : Dolby Digital
    Codec ID                    : A_AC3
    Duration                    : 2 h 6 min
    Bit rate mode               : Constant
    Bit rate                    : 448 kb/s
    Channel(s)                  : 6 channels
    Channel layout              : L R C LFE Ls Rs
    Sampling rate               : 48.0 kHz
    Frame rate                  : 31.250 FPS (1536 SPF)
    Compression mode            : Lossy
    Stream size                 : 407 MiB (1%)
    Language                    : English
    Service kind                : Complete Main
    Default                     : No
    Forced                      : No

    Audio #3
    ID                          : 4
    Format                      : AC-3
    Format/Info                 : Audio Coding 3
    Commercial name             : Dolby Digital
    Codec ID                    : A_AC3
    Duration                    : 2 h 6 min
    Bit rate mode               : Constant
    Bit rate                    : 448 kb/s
    Channel(s)                  : 6 channels
    Channel layout              : L R C LFE Ls Rs
    Sampling rate               : 48.0 kHz
    Frame rate                  : 31.250 FPS (1536 SPF)
    Compression mode            : Lossy
    Stream size                 : 407 MiB (1%)
    Language                    : Spanish
    Service kind                : Complete Main
    Default                     : Yes
    Forced                      : No

    Text
    ID                          : 5
    Format                      : PGS
    Muxing mode                 : zlib
    Codec ID                    : S_HDMV/PGS
    Codec ID/Info               : Picture based subtitle format used on BDs/HD-DVDs
    Duration                    : 2 h 5 min
    Bit rate                    : 22.5 kb/s
    Count of elements           : 1882
    Stream size                 : 20.2 MiB (0%)
    Language                    : Spanish
    Default                     : No
    Forced                      : No

    Menu
    00:00:00.000                : en:Chapter 1
    00:03:58.821                : en:Chapter 2
    00:11:13.172                : en:Chapter 3
    00:15:24.924                : en:Chapter 4
    00:21:29.621                : en:Chapter 5
    00:25:44.543                : en:Chapter 6
    00:29:46.826                : en:Chapter 7
    00:31:31.014                : en:Chapter 8
    00:35:34.298                : en:Chapter 9
    00:45:24.346                : en:Chapter 10
    00:50:21.893                : en:Chapter 11
    00:54:13.333                : en:Chapter 12
    00:57:18.351                : en:Chapter 13
    01:00:07.395                : en:Chapter 14
    01:04:12.056                : en:Chapter 15
    01:09:32.084                : en:Chapter 16
    01:11:48.053                : en:Chapter 17
    01:13:34.284                : en:Chapter 18
    01:16:47.561                : en:Chapter 19
    01:21:31.177                : en:Chapter 20
    01:23:10.026                : en:Chapter 21
    01:26:30.852                : en:Chapter 22
    01:31:21.434                : en:Chapter 23
    01:34:13.856                : en:Chapter 24
    01:43:42.674                : en:Chapter 25
    01:47:38.660                : en:Chapter 26
    01:55:20.079                : en:Chapter 27
    01:59:16.274                : en:Chapter 28

  • Peso: 27.0 GiB

Sinopsis

Pi Patel es un muchacho cuyo padre es el dueño del zoológico de la ciudad de la India en la que viven. Su familia decide marcharse a Canadá, pero una tormenta hace naufragar el barco en el que viajan. Pi consigue salvarse gracias a una barcaza en la que también hay otro «pasajero», un tigre de Bengala al que el joven intentará domar para poder sobrevivir.

Ficha técnica

  • Titulo original: Life of Pi
  • Fecha de lanzamiento: 20-11-2012 (Canada, Taiwan, United Kingdom, United States of America)
  • Director: Ang Lee
  • Género: Acción, Aventura, Drama

Video trailer de la película

Enlaces de descarga

Rip de Bluray

Descargar Life of Pi (2012) REMUX 1080p Latino – CMHDD


Aportes de DPeliculasHDmega la pass es:dpeliculashdmega.org Aportes de CinemaniaHD la pass es:cinemaniahdd.com
Guardado en : Acción , Aventura , Drama

Películas relacionadas

  • Un mundo extraño (2022) HD 1080p Latino

    Un mundo extraño (2022) HD 1080p Latino

    2022
    Un mundo extraño (2022) HD 1080p Latino

    1h 42m 2022

    Descargar Un mundo extraño (2022) HD 1080p Latino. Los Clades son una familia conocida en todo el mundo,...

    Director: Thai Bettistea

    Género: Animación

    Actores: Reed Buck

  • Un mundo extraño (2022) REMUX 1080p Latino

    Un mundo extraño (2022) REMUX 1080p Latino

    2022
    Un mundo extraño (2022) REMUX 1080p Latino

    1h 42m 2022

    Descargar Un mundo extraño (2022) REMUX 1080p. Un viaje a una tierra inexplorada y traicionera en la...

    Director: Thai Bettistea

    Género: Animación

    Actores: Reed Buck

  • Stromboli (2022) NF WEB-DL 1080p Latino

    Stromboli (2022) NF WEB-DL 1080p Latino

    2022
    Stromboli (2022) NF WEB-DL 1080p Latino

    1h 26m 2022

    Descargar Stromboli (2022) NF WEB-DL 1080p Latino. Sara, una mujer que se ha divorciado recientemente,...

    Director: Michiel van Erp

    Género: Drama

    Actores: Tim McInnerny

descargar Life of Pi (2012) REMUX 1080p Latino – CMHDD Full 1080p 1080p gratis, Life of Pi (2012) REMUX 1080p Latino – CMHDD Full 1080p mega 1 link, Life of Pi (2012) REMUX 1080p Latino – CMHDD Full 1080p pelicula completa, descargar Life of Pi (2012) REMUX 1080p Latino – CMHDD Full 1080p gratis en mega.

Life of Pi (2012) REMUX 1080p Latino – CMHDD pelicula full hd, Life of Pi (2012) REMUX 1080p Latino – CMHDD mega latino, Life of Pi (2012) REMUX 1080p Latino – CMHDD 4k latino, Life of Pi (2012) REMUX 1080p Latino – CMHDD pelicula completa, Life of Pi (2012) REMUX 1080p Latino – CMHDD descargar gratis, descargar Life of Pi (2012) REMUX 1080p Latino – CMHDD pelicula latino, Life of Pi (2012) REMUX 1080p Latino – CMHDD 1 link mega, Life of Pi (2012) REMUX 1080p Latino – CMHDD 1 link google drive, Life of Pi (2012) REMUX 1080p Latino – CMHDD hd 1080p latino.