×

¿Problemas para descargar con Mozilla, EDGE? Deshabilita la opción "Abrir vinculos en una pestaña nueva" tal como lo muestra ésta imagen.

Life of Pi (2012) Full HD 1080p Latino – CMHDD

422 vistas

Información de Life of Pi (2012) Full HD 1080p Latino – CMHDD

Datos de la película

  • Calidad: Full 1080p
  • Audio: Español Latino AC3 5.1 BLURAY - Ingles DTS-HD Master 7.1 BLURAY
  • Subtitulos: Español Latino SRT- FORZADOS SRT
  • Resolución: 1920x1080p
  • Formato: MKV
  • Codec: H.264
  • Encoder: Dracarys
  • Mediainfo: Clic para Mostrar Datos Ver
  • Format                      : Matroska
    Format version              : Version 4
    File size                   : 10.4 GiB
    Duration                    : 2 h 7 min
    Overall bit rate mode       : Variable
    Overall bit rate            : 11.7 Mb/s
    Movie name                  : Life of Pi (2012) Full HD 1080p Latino - CMHDD
    Encoded date                : UTC 2020-07-24 19:49:04
    Writing application         : mkvmerge v46.0.0 ('No Deeper Escape') 64-bit
    Writing library             : libebml v1.3.10 + libmatroska v1.5.2

    Video
    ID                          : 1
    Format                      : AVC
    Format/Info                 : Advanced Video Codec
    Format profile              : High@L4.1
    Format settings             : CABAC / 4 Ref Frames
    Format settings, CABAC      : Yes
    Format settings, Reference  : 4 frames
    Codec ID                    : V_MPEG4/ISO/AVC
    Duration                    : 2 h 6 min
    Bit rate                    : 6 584 kb/s
    Width                       : 1 920 pixels
    Height                      : 1 080 pixels
    Display aspect ratio        : 16:9
    Frame rate mode             : Constant
    Frame rate                  : 23.976 (24000/1001) FPS
    Color space                 : YUV
    Chroma subsampling          : 4:2:0
    Bit depth                   : 8 bits
    Scan type                   : Progressive
    Bits/(Pixel*Frame)          : 0.132
    Stream size                 : 5.84 GiB (56%)
    Writing library             : x264 core 157 r2935 545de2f
    Encoding settings           : cabac=1 / ref=4 / deblock=1:0:0 / analyse=0x3:0x133 / me=tesa / subme=11 / psy=1 / psy_rd=1.00:0.00 / mixed_ref=1 / me_range=24 / chroma_me=1 / trellis=2 / 8x8dct=1 / cqm=0 / deadzone=21,11 / fast_pskip=0 / chroma_qp_offset=-2 / threads=24 / lookahead_threads=6 / sliced_threads=0 / nr=0 / decimate=1 / interlaced=0 / bluray_compat=0 / constrained_intra=0 / bframes=16 / b_pyramid=2 / b_adapt=2 / b_bias=0 / direct=3 / weightb=1 / open_gop=0 / weightp=2 / keyint=240 / keyint_min=24 / scenecut=40 / intra_refresh=0 / rc_lookahead=60 / rc=crf / mbtree=1 / crf=20.0 / qcomp=0.60 / qpmin=0 / qpmax=69 / qpstep=4 / vbv_maxrate=62500 / vbv_bufsize=78125 / crf_max=0.0 / nal_hrd=none / filler=0 / ip_ratio=1.40 / aq=1:1.00
    Default                     : Yes
    Forced                      : No
    Color range                 : Limited
    Color primaries             : BT.709
    Transfer characteristics    : BT.709
    Matrix coefficients         : BT.709

    Audio #1
    ID                          : 2
    Format                      : AC-3
    Format/Info                 : Audio Coding 3
    Commercial name             : Dolby Digital
    Codec ID                    : A_AC3
    Duration                    : 2 h 7 min
    Bit rate mode               : Constant
    Bit rate                    : 448 kb/s
    Channel(s)                  : 6 channels
    Channel layout              : L R C LFE Ls Rs
    Sampling rate               : 48.0 kHz
    Frame rate                  : 31.250 FPS (1536 SPF)
    Compression mode            : Lossy
    Stream size                 : 407 MiB (4%)
    Language                    : Spanish
    Service kind                : Complete Main
    Default                     : Yes
    Forced                      : No

    Audio #2
    ID                          : 3
    Format                      : DTS ES XLL
    Format/Info                 : Digital Theater Systems
    Commercial name             : DTS-HD Master Audio
    Codec ID                    : A_DTS
    Duration                    : 2 h 6 min
    Bit rate mode               : Variable
    Bit rate                    : 4 702 kb/s
    Channel(s)                  : 8 channels
    Channel layout              : C L R Ls Rs LFE Lb Rb
    Sampling rate               : 48.0 kHz
    Frame rate                  : 93.750 FPS (512 SPF)
    Bit depth                   : 24 bits
    Compression mode            : Lossless
    Stream size                 : 4.17 GiB (40%)
    Language                    : English
    Default                     : No
    Forced                      : No

    Text #1
    ID                          : 4
    Format                      : UTF-8
    Codec ID                    : S_TEXT/UTF8
    Codec ID/Info               : UTF-8 Plain Text
    Duration                    : 2 h 5 min
    Bit rate                    : 36 b/s
    Count of elements           : 941
    Stream size                 : 33.8 KiB (0%)
    Language                    : Spanish
    Default                     : No
    Forced                      : No

    Text #2
    ID                          : 5
    Format                      : UTF-8
    Codec ID                    : S_TEXT/UTF8
    Codec ID/Info               : UTF-8 Plain Text
    Duration                    : 1 h 15 min
    Bit rate                    : 0 b/s
    Count of elements           : 4
    Stream size                 : 150 Bytes (0%)
    Title                       : Forzados
    Language                    : Spanish
    Default                     : Yes
    Forced                      : No

    Text #3
    ID                          : 6
    Format                      : PGS
    Muxing mode                 : zlib
    Codec ID                    : S_HDMV/PGS
    Codec ID/Info               : Picture based subtitle format used on BDs/HD-DVDs
    Duration                    : 2 h 5 min
    Bit rate                    : 22.4 kb/s
    Count of elements           : 1882
    Stream size                 : 20.1 MiB (0%)
    Language                    : Spanish
    Default                     : No
    Forced                      : No

    Menu
    00:00:00.000                : :Chapter 1
    00:03:57.904                : :Chapter 2
    00:11:13.173                : :Chapter 3
    00:15:24.507                : :Chapter 4
    00:21:28.913                : :Chapter 5
    00:25:44.543                : :Chapter 6
    00:29:46.827                : :Chapter 7
    00:31:31.014                : :Chapter 8
    00:35:34.299                : :Chapter 9
    00:45:24.347                : :Chapter 10
    00:50:21.769                : :Chapter 11
    00:54:13.333                : :Chapter 12
    00:57:18.352                : :Chapter 13
    01:00:06.520                : :Chapter 14
    01:04:11.389                : :Chapter 15
    01:09:32.085                : :Chapter 16
    01:11:48.054                : :Chapter 17
    01:13:33.659                : :Chapter 18
    01:16:47.561                : :Chapter 19
    01:21:31.095                : :Chapter 20
    01:23:10.027                : :Chapter 21
    01:26:30.852                : :Chapter 22
    01:31:21.434                : :Chapter 23
    01:34:13.857                : :Chapter 24
    01:43:41.799                : :Chapter 25
    01:47:37.743                : :Chapter 26
    01:55:19.371                : :Chapter 27
    01:59:16.274                : :Chapter 28

  • Peso: 10.4 GiB

Sinopsis

Pi Patel es un muchacho cuyo padre es el dueño del zoológico de la ciudad de la India en la que viven. Su familia decide marcharse a Canadá, pero una tormenta hace naufragar el barco en el que viajan. Pi consigue salvarse gracias a una barcaza en la que también hay otro «pasajero», un tigre de Bengala al que el joven intentará domar para poder sobrevivir.

Ficha técnica

Video trailer de la película

Enlaces de descarga

Rip de Bluray

Descargar Life of Pi (2012) Full HD 1080p Latino – CMHDD




Aportes de DPeliculasHDmega la pass es:dpeliculashdmega.org Aportes de CinemaniaHD la pass es:cinemaniahdd.com

Películas relacionadas

descargar Life of Pi (2012) Full HD 1080p Latino – CMHDD Full 1080p 1080p gratis, Life of Pi (2012) Full HD 1080p Latino – CMHDD Full 1080p mega 1 link, Life of Pi (2012) Full HD 1080p Latino – CMHDD Full 1080p pelicula completa, descargar Life of Pi (2012) Full HD 1080p Latino – CMHDD Full 1080p gratis en mega.

Life of Pi (2012) Full HD 1080p Latino – CMHDD pelicula full hd, Life of Pi (2012) Full HD 1080p Latino – CMHDD mega latino, Life of Pi (2012) Full HD 1080p Latino – CMHDD 4k latino, Life of Pi (2012) Full HD 1080p Latino – CMHDD pelicula completa, Life of Pi (2012) Full HD 1080p Latino – CMHDD descargar gratis, descargar Life of Pi (2012) Full HD 1080p Latino – CMHDD pelicula latino, Life of Pi (2012) Full HD 1080p Latino – CMHDD 1 link mega, Life of Pi (2012) Full HD 1080p Latino – CMHDD 1 link google drive, Life of Pi (2012) Full HD 1080p Latino – CMHDD hd 1080p latino.
Comentarios 0