Como La Vida Misma (2018) 4K UHD HDR Web-DL Latino

142 vistas
1 estrella2 estrellas3 estrellas4 estrellas5 estrellas (Ninguna valoración todavía)
Cargando...

Información de Como La Vida Misma (2018) 4K UHD HDR Web-DL Latino

Datos de la película

  • Calidad: WEBDL
  • Audio: Se especifica abajo de la Sinopsis
  • Subtitulos: Español Latino SRT - Ingles SRT
  • Resolución: 3840x1600p
  • Formato: MKV
  • Codec: HEVC
  • Encoder: CinefiloCool
  • Mediainfo: Clic para Mostrar Datos Ver
  • La Vida Misma (2018) UHD HDR Web-DL Latino-CMHDD.mkv
    Format                      : Matroska
    Format version              : Version 4
    File size                   : 12.5 GiB
    Duration                    : 1 h 57 min
    Overall bit rate            : 15.2 Mb/s
    Movie name                  : Life Itself (2018) CinemaniaHDD.Net
    Encoded date                : UTC 2020-07-07 15:57:52
    Writing application         : mkvmerge v46.0.0 ('No Deeper Escape') 64-bit
    Writing library             : libebml v1.3.10 + libmatroska v1.5.2
    Attachments                 : CINEMANIAHD.png

    Video
    ID                          : 1
    Format                      : HEVC
    Format/Info                 : High Efficiency Video Coding
    Format profile              : Main 10@L5@Main
    HDR format                  : SMPTE ST 2094 App 4, Version 0
    Codec ID                    : V_MPEGH/ISO/HEVC
    Duration                    : 1 h 57 min
    Bit rate                    : 13.9 Mb/s
    Width                       : 3 840 pixels
    Height                      : 1 600 pixels
    Display aspect ratio        : 2.40:1
    Frame rate mode             : Constant
    Frame rate                  : 23.976 (24000/1001) FPS
    Standard                    : NTSC
    Color space                 : YUV
    Chroma subsampling          : 4:2:0 (Type 2)
    Bit depth                   : 10 bits
    Bits/(Pixel*Frame)          : 0.095
    Stream size                 : 11.4 GiB (92%)
    Title                       : Web 2160p HDR [CinemaniaHDD]
    Default                     : Yes
    Forced                      : No
    Color range                 : Limited
    Color primaries             : BT.2020
    Transfer characteristics    : PQ
    Matrix coefficients         : BT.2020 non-constant
    Mastering display color pri : Display P3
    Mastering display luminance : min: 0.0051 cd/m2, max: 1000 cd/m2
    Maximum Content Light Level : 815 cd/m2
    Maximum Frame-Average Light : 186 cd/m2

    Audio #1
    ID                          : 2
    Format                      : AC-3
    Format/Info                 : Audio Coding 3
    Commercial name             : Dolby Digital
    Codec ID                    : A_AC3
    Duration                    : 1 h 57 min
    Bit rate mode               : Constant
    Bit rate                    : 640 kb/s
    Channel(s)                  : 6 channels
    Channel layout              : L R C LFE Ls Rs
    Sampling rate               : 48.0 kHz
    Frame rate                  : 31.250 FPS (1536 SPF)
    Compression mode            : Lossy
    Stream size                 : 539 MiB (4%)
    Title                       : Español Latino [CinemaniaHDD]
    Language                    : Spanish
    Service kind                : Complete Main
    Default                     : Yes
    Forced                      : No

    Audio #2
    ID                          : 3
    Format                      : E-AC-3
    Format/Info                 : Enhanced AC-3
    Commercial name             : Dolby Digital Plus
    Codec ID                    : A_EAC3
    Duration                    : 1 h 57 min
    Bit rate mode               : Constant
    Bit rate                    : 640 kb/s
    Channel(s)                  : 6 channels
    Channel layout              : L R C LFE Ls Rs
    Sampling rate               : 48.0 kHz
    Frame rate                  : 31.250 FPS (1536 SPF)
    Compression mode            : Lossy
    Stream size                 : 539 MiB (4%)
    Title                       : Ingles [CinemaniaHDD]
    Language                    : English
    Service kind                : Complete Main
    Default                     : No
    Forced                      : No

    Text #1
    ID                          : 4
    Format                      : UTF-8
    Codec ID                    : S_TEXT/UTF8
    Codec ID/Info               : UTF-8 Plain Text
    Duration                    : 1 h 3 min
    Bit rate                    : 0 b/s
    Count of elements           : 4
    Stream size                 : 96.0 Bytes (0%)
    Title                       : Forzados-SRT [CinemaniaHDD]
    Language                    : Spanish
    Default                     : Yes
    Forced                      : No

    Text #2
    ID                          : 5
    Format                      : UTF-8
    Codec ID                    : S_TEXT/UTF8
    Codec ID/Info               : UTF-8 Plain Text
    Duration                    : 1 h 48 min
    Bit rate                    : 45 b/s
    Count of elements           : 968
    Stream size                 : 35.8 KiB (0%)
    Title                       : Español-SRT [CinemaniaHDD]
    Language                    : Spanish
    Default                     : No
    Forced                      : No

    Text #3
    ID                          : 6
    Format                      : UTF-8
    Codec ID                    : S_TEXT/UTF8
    Codec ID/Info               : UTF-8 Plain Text
    Duration                    : 1 h 56 min
    Bit rate                    : 56 b/s
    Count of elements           : 1633
    Stream size                 : 48.4 KiB (0%)
    Title                       : Ingles-SRT [CinemaniaHDD]
    Language                    : English
    Default                     : No
    Forced                      : No

    Menu
    00:00:00.000                : en:Studio Logos
    00:00:53.000                : en:We meet our hero
    00:05:01.000                : en:Will isn't well
    00:07:24.000                : en:Will loves Abby intensely
    00:13:11.000                : en:Will works with his therapist
    00:17:08.000                : en:Will remembers having fun with Abby
    00:25:15.000                : en:Will tells Dr. Morris about Abby
    00:33:51.000                : en:Maybe it was all a narrative trick
    00:41:31.000                : en:The story of Dylan Dempsey
    00:45:27.000                : en:Dylan is out of control
    00:54:05.000                : en:Javier meets with Mr. Saccione
    01:06:27.000                : en:Hero or villain?
    01:11:46.000                : en:Javier takes his family to New York
    01:16:29.000                : en:Mr. Saccione steps up to help
    01:27:50.000                : en:Rodrigo finds his path
    01:32:54.000                : en:An important day for Rodrigo
    01:42:39.000                : en:When life brings you to your knees, stand back up
    01:49:15.000                : en:End Credits

  • Peso: 12.5 GiB

Sinopsis

Descargar Como La Vida Misma (2018) 4K UHD HDR Web-DL Latino. Dos jóvenes neoyorquinos se enamoran mientras están en la universidad, y acaban casándose y teniendo un hijo. Pero los inesperados giros durante este recorrido repercuten en dos continentes y en numerosas existencias.

Audio Español Latino AC3 5.1 Amazon – Ingles EAC3 5.1 Amazon

Ficha técnica

Video trailer de la película

Enlaces de descarga

Rip de Bluray

Descargar Como La Vida Misma (2018) 4K UHD HDR Web-DL Latino




Aportes de DPeliculasHDmega la pass es:dpeliculashdmega.org Aportes de CinemaniaHD la pass es:cinemaniahdd.com
Guardado en : 4K HDR , 4K UHD , Drama , Romance

Películas relacionadas

  • Glory (1989) Full HD 1080p Latino – CMHDD

    Glory (1989) Full HD 1080p Latino – CMHDD

    1989
    Glory (1989) Full HD 1080p Latino – CMHDD

    0.0 2h 2m 1989

    A principios de la Guerra de Secesión, el ejército del norte se mostraba reticente a dar armas a los...

    Director: Skip Cosper

    Género: Bélica

    Actores: William Mathis

  • Glory (1989) REMUX 1080p Latino – CMHDD

    Glory (1989) REMUX 1080p Latino – CMHDD

    1989
    Glory (1989) REMUX 1080p Latino – CMHDD

    0.0 2h 2m 1989

    A principios de la Guerra de Secesión, el ejército del norte se mostraba reticente a dar armas a los...

    Director: Skip Cosper

    Género: Bélica

    Actores: William Mathis

  • El niño con el pijama de rayas (2008) 1080p Latino

    El niño con el pijama de rayas (2008) 1080p Latino

    2008
    El niño con el pijama de rayas (2008) 1080p Latino

    0.0 1h 34m 2008

    Descargar El niño con el pijama de rayas (2008) 1080p Latino. Berlín, 1942. Bruno tiene ocho años...

    Director: Mark Herman

    Género: Bélica

    Actores: Zsuzsa Holl

Como La Vida Misma (2018) 4K UHD HDR Web-DL Latino pelicula full hd, Como La Vida Misma (2018) 4K UHD HDR Web-DL Latino mega latino, Como La Vida Misma (2018) 4K UHD HDR Web-DL Latino 4k latino, Como La Vida Misma (2018) 4K UHD HDR Web-DL Latino pelicula completa, Como La Vida Misma (2018) 4K UHD HDR Web-DL Latino descargar gratis, descargar Como La Vida Misma (2018) 4K UHD HDR Web-DL Latino pelicula latino, Como La Vida Misma (2018) 4K UHD HDR Web-DL Latino 1 link mega, Como La Vida Misma (2018) 4K UHD HDR Web-DL Latino 1 link google drive, Como La Vida Misma (2018) 4K UHD HDR Web-DL Latino hd 1080p latino.
Comentarios 0