×

¿Problemas para descargar con Mozilla, EDGE? Deshabilita la opción "Abrir vinculos en una pestaña nueva" tal como lo muestra ésta imagen.

Licorice Pizza (2022) AMZN 4K-HDR WEB-DL 2160p Latino

27 vistas

Información de Licorice Pizza (2022) AMZN 4K-HDR WEB-DL 2160p Latino

Datos de la película

  • Calidad: 1080p
  • Audio: Español Latino AC3 5.1 WEB-DL - Ingles AC3 5.1 WEB-DL
  • Subtitulos: Español Latino SRT- FORZADOS SRT
  • Resolución: 3840x1600
  • Formato: MKV
  • Codec: HEVC
  • Encoder: cinemaniahdd
  • Mediainfo: Clic para Mostrar Datos Ver
  • Licorice Pizza (2022) AMZN 4K-HDR WEB-DL 2160p Latino [CNMNHDD].mkv
    Format                      : Matroska
    Format version              : Version 4
    File size                   : 15.7 GiB
    Duration                    : 2 h 14 min
    Overall bit rate            : 16.7 Mb/s
    Movie name                  : Licorice Pizza (2022) [2160p] - CinemaniaHDD.Net
    Encoded date                : UTC 2022-09-11 01:06:08
    Writing application         : mkvmerge v56.1.0 ('My Friend') 64-bit
    Writing library             : libebml v1.4.2 + libmatroska v1.6.4

    Video
    ID                          : 1
    Format                      : HEVC
    Format/Info                 : High Efficiency Video Coding
    Format profile              : Main 10@L5@Main
    HDR format                  : SMPTE ST 2094 App 4, Version 1, HDR10+ Profile B compatible
    Codec ID                    : V_MPEGH/ISO/HEVC
    Duration                    : 2 h 14 min
    Bit rate                    : 14.9 Mb/s
    Width                       : 3 840 pixels
    Height                      : 1 600 pixels
    Display aspect ratio        : 2.40:1
    Frame rate mode             : Constant
    Frame rate                  : 23.976 (24000/1001) FPS
    Color space                 : YUV
    Chroma subsampling          : 4:2:0
    Bit depth                   : 10 bits
    Bits/(Pixel*Frame)          : 0.101
    Stream size                 : 13.9 GiB (88%)
    Title                       : CinemaniaHDD
    Language                    : English
    Default                     : Yes
    Forced                      : No
    Color range                 : Limited
    Color primaries             : BT.2020
    Transfer characteristics    : PQ
    Matrix coefficients         : BT.2020 non-constant
    Mastering display color pri : Display P3
    Mastering display luminance : min: 0.0050 cd/m2, max: 1000 cd/m2
    Maximum Content Light Level : 274 cd/m2
    Maximum Frame-Average Light : 196 cd/m2

    Audio #1
    ID                          : 2
    Format                      : AC-3
    Format/Info                 : Audio Coding 3
    Commercial name             : Dolby Digital
    Codec ID                    : A_AC3
    Duration                    : 2 h 14 min
    Bit rate mode               : Constant
    Bit rate                    : 640 kb/s
    Channel(s)                  : 6 channels
    Channel layout              : L R C LFE Ls Rs
    Sampling rate               : 48.0 kHz
    Frame rate                  : 31.250 FPS (1536 SPF)
    Compression mode            : Lossy
    Stream size                 : 615 MiB (4%)
    Title                       : Español latino [CinemaniaHDD]
    Language                    : Spanish
    Service kind                : Complete Main
    Default                     : Yes
    Forced                      : No

    Audio #2
    ID                          : 3
    Format                      : E-AC-3
    Format/Info                 : Enhanced AC-3
    Commercial name             : Dolby Digital Plus
    Codec ID                    : A_EAC3
    Duration                    : 2 h 14 min
    Bit rate mode               : Constant
    Bit rate                    : 640 kb/s
    Channel(s)                  : 6 channels
    Channel layout              : L R C LFE Ls Rs
    Sampling rate               : 48.0 kHz
    Frame rate                  : 31.250 FPS (1536 SPF)
    Compression mode            : Lossy
    Stream size                 : 615 MiB (4%)
    Title                       : Español latino / E-AC3 [CinemaniaHDD]
    Language                    : Spanish
    Service kind                : Complete Main
    Default                     : No
    Forced                      : No

    Audio #3
    ID                          : 4
    Format                      : E-AC-3
    Format/Info                 : Enhanced AC-3
    Commercial name             : Dolby Digital Plus
    Codec ID                    : A_EAC3
    Duration                    : 2 h 14 min
    Bit rate mode               : Constant
    Bit rate                    : 640 kb/s
    Channel(s)                  : 6 channels
    Channel layout              : L R C LFE Ls Rs
    Sampling rate               : 48.0 kHz
    Frame rate                  : 31.250 FPS (1536 SPF)
    Compression mode            : Lossy
    Stream size                 : 615 MiB (4%)
    Title                       : Inglés [CinemaniaHDD]
    Language                    : English
    Service kind                : Complete Main
    Default                     : No
    Forced                      : No

    Text #1
    ID                          : 5
    Format                      : UTF-8
    Codec ID                    : S_TEXT/UTF8
    Codec ID/Info               : UTF-8 Plain Text
    Duration                    : 2 h 7 min
    Bit rate                    : 2 b/s
    Count of elements           : 69
    Stream size                 : 2.63 KiB (0%)
    Title                       : Forzados [CinemaniaHDD]
    Language                    : Spanish
    Default                     : No
    Forced                      : Yes

    Text #2
    ID                          : 6
    Format                      : UTF-8
    Codec ID                    : S_TEXT/UTF8
    Codec ID/Info               : UTF-8 Plain Text
    Duration                    : 2 h 12 min
    Bit rate                    : 58 b/s
    Count of elements           : 1995
    Stream size                 : 56.5 KiB (0%)
    Title                       : Español latino [CinemaniaHDD]
    Language                    : Spanish
    Default                     : No
    Forced                      : No

    Text #3
    ID                          : 7
    Format                      : UTF-8
    Codec ID                    : S_TEXT/UTF8
    Codec ID/Info               : UTF-8 Plain Text
    Duration                    : 2 h 6 min
    Bit rate                    : 80 b/s
    Count of elements           : 2446
    Stream size                 : 74.3 KiB (0%)
    Title                       : Inglés [CinemaniaHDD]
    Language                    : English
    Default                     : No
    Forced                      : No

    Menu
    00:00:00.000                : Studio Logo
    00:00:11.000                : Scene 2
    00:05:33.000                : Scene 3
    00:11:37.000                : Scene 4
    00:18:08.000                : Scene 5
    00:24:53.000                : Scene 6
    00:31:31.000                : Scene 7
    00:37:32.000                : Scene 8
    00:43:47.000                : Scene 9
    00:48:54.000                : Scene 10
    00:55:13.000                : Scene 11
    01:01:19.000                : Scene 12
    01:07:22.000                : Scene 13
    01:13:23.000                : Scene 14
    01:18:42.000                : Scene 15
    01:24:52.000                : Scene 16
    01:30:02.000                : Scene 17
    01:36:07.000                : Scene 18
    01:44:46.000                : Scene 19
    01:49:52.000                : Scene 20
    01:54:56.000                : Scene 21
    02:00:27.000                : Scene 22
    02:06:16.000                : Scene 23
    02:13:10.000                : Scene 24

     

  • Peso: 15.7 GiB

Sinopsis

Alana Kane y Gary Valentine se conocen, pasan el tiempo juntos y acaban enamorándose en el Valle de San Fernando en 1973.

Ficha técnica

Video trailer de la película

Enlaces de descarga

Rip de Bluray

Descargar Licorice Pizza (2022) AMZN 4K-HDR WEB-DL 2160p Latino




Aportes de DPeliculasHDmega la pass es:dpeliculashdmega.org Aportes de CinemaniaHD la pass es:cinemaniahdd.com
Guardado en : 4K HDR , 4K UHD , Comedia , Drama

Películas relacionadas

  • Blonde (2022) NF WEB-DL 1080p Latino

    Blonde (2022) NF WEB-DL 1080p Latino

    2022
    Blonde (2022) NF WEB-DL 1080p Latino

    2h 46m 2022

    Descargar Blonde (2022) NF WEB-DL 1080p Latino. Basada en el bestseller de la cinco veces finalista al...

    Director: Kristin Bree Calabrese

    Género: Drama

    Actores: Xavier Samuel

  • Tren Bala (2022) WEB-DL 4K UHD HDR Latino

    Tren Bala (2022) WEB-DL 4K UHD HDR Latino

    2022
    Tren Bala (2022) WEB-DL 4K UHD HDR Latino

    2h 7m 2022

    Descargar Tren Bala (2022) WEB-DL 4K UHD HDR Latino. El desafortunado asesino "Catarina" está decidido...

    Director: Paul Barry

    Género: 4K HDR

    Actores: Zooey Miyoshi

  • Tren Bala (2022) AMZN WEB-DL 1080p Latino

    Tren Bala (2022) AMZN WEB-DL 1080p Latino

    2022
    Tren Bala (2022) AMZN WEB-DL 1080p Latino

    2h 7m 2022

    Descargar Tren Bala (2022) AMZN WEB-DL 1080p Latino. Cinco asesinos a sueldo se encuentran a bordo de...

    Director: Paul Barry

    Género: Acción

    Actores: Zooey Miyoshi

descargar Licorice Pizza (2022) AMZN 4K-HDR WEB-DL 2160p Latino 1080p 1080p gratis, Licorice Pizza (2022) AMZN 4K-HDR WEB-DL 2160p Latino 1080p mega 1 link, Licorice Pizza (2022) AMZN 4K-HDR WEB-DL 2160p Latino 1080p pelicula completa, descargar Licorice Pizza (2022) AMZN 4K-HDR WEB-DL 2160p Latino 1080p gratis en mega.

Licorice Pizza (2022) AMZN 4K-HDR WEB-DL 2160p Latino pelicula full hd, Licorice Pizza (2022) AMZN 4K-HDR WEB-DL 2160p Latino mega latino, Licorice Pizza (2022) AMZN 4K-HDR WEB-DL 2160p Latino 4k latino, Licorice Pizza (2022) AMZN 4K-HDR WEB-DL 2160p Latino pelicula completa, Licorice Pizza (2022) AMZN 4K-HDR WEB-DL 2160p Latino descargar gratis, descargar Licorice Pizza (2022) AMZN 4K-HDR WEB-DL 2160p Latino pelicula latino, Licorice Pizza (2022) AMZN 4K-HDR WEB-DL 2160p Latino 1 link mega, Licorice Pizza (2022) AMZN 4K-HDR WEB-DL 2160p Latino 1 link google drive, Licorice Pizza (2022) AMZN 4K-HDR WEB-DL 2160p Latino hd 1080p latino.
Comentarios 0