×

¿Problemas para descargar con Mozilla, EDGE? Deshabilita la opción "Abrir vinculos en una pestaña nueva" tal como lo muestra ésta imagen.

James Bond: Licencia para Matar (1989) REMUX 1080p Latino

413 vistas

Información de James Bond: Licencia para Matar (1989) REMUX 1080p Latino

Datos de la película

  • Calidad: Full 1080p
  • Audio: Español Latino AC3 5.1 BLURAY - Ingles DTS 5.1 BLURAY
  • Subtitulos: Español Latino PGS - Ingles PGS
  • Resolución: 1920x1080p
  • Formato: MKV
  • Codec: H.264
  • Encoder: CinefiloCool
  • Mediainfo: Clic para Mostrar Datos Ver
  • Licencia Para Matar (1989) REMUX 1080p Latino-CMHDD.mkv
    Format                      : Matroska
    Format version              : Version 4
    File size                   : 27.3 GiB
    Duration                    : 2 h 13 min
    Overall bit rate mode       : Variable
    Overall bit rate            : 29.3 Mb/s
    Movie name                  : Licence To Kill (1989) CinemaniaHDD.Net
    Encoded date                : UTC 2020-06-11 19:10:33
    Writing application         : mkvmerge v46.0.0 ('No Deeper Escape') 64-bit
    Writing library             : libebml v1.3.10 + libmatroska v1.5.2
    Attachments                 : CINEMANIAHD.png

    Video
    ID                          : 1
    Format                      : AVC
    Format/Info                 : Advanced Video Codec
    Format profile              : High@L4.1
    Format settings             : CABAC / 4 Ref Frames
    Format settings, CABAC      : Yes
    Format settings, Reference  : 4 frames
    Codec ID                    : V_MPEG4/ISO/AVC
    Duration                    : 2 h 13 min
    Bit rate mode               : Variable
    Bit rate                    : 25.0 Mb/s
    Maximum bit rate            : 35.0 Mb/s
    Width                       : 1 920 pixels
    Height                      : 1 080 pixels
    Display aspect ratio        : 16:9
    Frame rate mode             : Constant
    Frame rate                  : 23.976 (24000/1001) FPS
    Color space                 : YUV
    Chroma subsampling          : 4:2:0
    Bit depth                   : 8 bits
    Scan type                   : Progressive
    Bits/(Pixel*Frame)          : 0.503
    Stream size                 : 23.3 GiB (85%)
    Title                       : REMUX 1080p [CinemaniaHDD]
    Default                     : Yes
    Forced                      : No
    Color range                 : Limited
    Color primaries             : BT.709
    Transfer characteristics    : BT.709
    Matrix coefficients         : BT.709

    Audio #1
    ID                          : 2
    Format                      : AC-3
    Format/Info                 : Audio Coding 3
    Commercial name             : Dolby Digital
    Codec ID                    : A_AC3
    Duration                    : 2 h 13 min
    Bit rate mode               : Constant
    Bit rate                    : 448 kb/s
    Channel(s)                  : 6 channels
    Channel layout              : L R C LFE Ls Rs
    Sampling rate               : 48.0 kHz
    Frame rate                  : 31.250 FPS (1536 SPF)
    Compression mode            : Lossy
    Stream size                 : 427 MiB (2%)
    Title                       : Español Latino [CinemaniaHDD]
    Language                    : Spanish
    Service kind                : Complete Main
    Default                     : Yes
    Forced                      : No

    Audio #2
    ID                          : 3
    Format                      : DTS XLL
    Format/Info                 : Digital Theater Systems
    Commercial name             : DTS-HD Master Audio
    Codec ID                    : A_DTS
    Duration                    : 2 h 13 min
    Bit rate mode               : Variable
    Bit rate                    : 3 780 kb/s
    Channel(s)                  : 6 channels
    Channel layout              : C L R Ls Rs LFE
    Sampling rate               : 48.0 kHz
    Frame rate                  : 93.750 FPS (512 SPF)
    Bit depth                   : 24 bits
    Compression mode            : Lossless
    Stream size                 : 3.52 GiB (13%)
    Title                       : Ingles [CinemaniaHDD]
    Language                    : English
    Default                     : No
    Forced                      : No

    Text #1
    ID                          : 4
    Format                      : PGS
    Muxing mode                 : zlib
    Codec ID                    : S_HDMV/PGS
    Codec ID/Info               : Picture based subtitle format used on BDs/HD-DVDs
    Duration                    : 2 h 9 min
    Bit rate                    : 34.6 kb/s
    Count of elements           : 2138
    Stream size                 : 32.1 MiB (0%)
    Title                       : Español-PGS [CinemaniaHDD]
    Language                    : Spanish
    Default                     : No
    Forced                      : No

    Text #2
    ID                          : 5
    Format                      : PGS
    Muxing mode                 : zlib
    Codec ID                    : S_HDMV/PGS
    Codec ID/Info               : Picture based subtitle format used on BDs/HD-DVDs
    Duration                    : 2 h 12 min
    Bit rate                    : 29.1 kb/s
    Count of elements           : 2703
    Stream size                 : 27.6 MiB (0%)
    Title                       : Ingles-PGS [CinemaniaHDD]
    Language                    : English
    Default                     : No
    Forced                      : No

    Text #3
    ID                          : 6
    Format                      : UTF-8
    Codec ID                    : S_TEXT/UTF8
    Codec ID/Info               : UTF-8 Plain Text
    Duration                    : 59 min 5 s
    Bit rate                    : 1 b/s
    Count of elements           : 18
    Stream size                 : 526 Bytes (0%)
    Title                       : Forzados-SRT [CinemaniaHDD]
    Language                    : Spanish
    Default                     : Yes
    Forced                      : No

    Text #4
    ID                          : 7
    Format                      : UTF-8
    Codec ID                    : S_TEXT/UTF8
    Codec ID/Info               : UTF-8 Plain Text
    Duration                    : 2 h 9 min
    Bit rate                    : 37 b/s
    Count of elements           : 1042
    Stream size                 : 35.7 KiB (0%)
    Title                       : Español-SRT [CinemaniaHDD]
    Language                    : Spanish
    Default                     : No
    Forced                      : No

    Menu
    00:00:00.000                : en:Chapter01
    00:08:37.558                : en:Chapter02
    00:11:26.727                : en:Chapter03
    00:15:45.069                : en:Chapter04
    00:18:28.315                : en:Chapter05
    00:27:32.400                : en:Chapter06
    00:31:28.344                : en:Chapter07
    00:32:52.303                : en:Chapter08
    00:36:16.257                : en:Chapter09
    00:40:44.984                : en:Chapter10
    00:43:33.277                : en:Chapter11
    00:46:12.978                : en:Chapter12
    00:47:42.484                : en:Chapter13
    00:50:38.952                : en:Chapter14
    00:54:59.921                : en:Chapter15
    00:57:39.539                : en:Chapter16
    01:02:05.972                : en:Chapter17
    01:11:29.743                : en:Chapter18
    01:14:45.814                : en:Chapter19
    01:20:23.819                : en:Chapter20
    01:25:41.344                : en:Chapter21
    01:30:40.184                : en:Chapter22
    01:32:34.465                : en:Chapter23
    01:38:33.407                : en:Chapter24
    01:42:53.667                : en:Chapter25
    01:49:44.369                : en:Chapter26
    01:54:54.387                : en:Chapter27
    01:56:46.499                : en:Chapter28
    02:01:21.649                : en:Chapter29
    02:05:32.733                : en:Chapter30
    02:08:31.537                : en:Chapter31
    02:10:36.745                : en:Chapter32
    02:13:20.784                : en:Chapter33

  • Peso: 27.3 GiB

Sinopsis

Descargar James Bond: Licencia para Matar (1989) REMUX 1080p Latino. El agente 007 a la caza y captura de un peligroso narcotraficante latinoamericano, con implicaciones personales de por medio: el capo de la droga mató a un amigo suyo, y Bond desea vengarse.

Ficha técnica

Video trailer de la película

Enlaces de descarga

Rip de Bluray

Descargar James Bond: Licencia para Matar (1989) REMUX 1080p Latino




Aportes de DPeliculasHDmega la pass es:dpeliculashdmega.org Aportes de CinemaniaHD la pass es:cinemaniahdd.com
Guardado en : Acción , Aventura , Remux , Suspenso

Películas relacionadas

descargar James Bond: Licencia para Matar (1989) REMUX 1080p Latino Full 1080p 1080p gratis, James Bond: Licencia para Matar (1989) REMUX 1080p Latino Full 1080p mega 1 link, James Bond: Licencia para Matar (1989) REMUX 1080p Latino Full 1080p pelicula completa, descargar James Bond: Licencia para Matar (1989) REMUX 1080p Latino Full 1080p gratis en mega.

James Bond: Licencia para Matar (1989) REMUX 1080p Latino pelicula full hd, James Bond: Licencia para Matar (1989) REMUX 1080p Latino mega latino, James Bond: Licencia para Matar (1989) REMUX 1080p Latino 4k latino, James Bond: Licencia para Matar (1989) REMUX 1080p Latino pelicula completa, James Bond: Licencia para Matar (1989) REMUX 1080p Latino descargar gratis, descargar James Bond: Licencia para Matar (1989) REMUX 1080p Latino pelicula latino, James Bond: Licencia para Matar (1989) REMUX 1080p Latino 1 link mega, James Bond: Licencia para Matar (1989) REMUX 1080p Latino 1 link google drive, James Bond: Licencia para Matar (1989) REMUX 1080p Latino hd 1080p latino.
Comentarios 0