×

¿Problemas para descargar con Mozilla, EDGE? Deshabilita la opción "Abrir vinculos en una pestaña nueva" tal como lo muestra ésta imagen.

Lethal Weapon 4 (1998) REMUX 1080p Latino – CMHDD

152 vistas

Información de Lethal Weapon 4 (1998) REMUX 1080p Latino – CMHDD

Datos de la película

  • Calidad: Full 1080p
  • Audio: Español Latino AC3 2.0 BLURAY - Ingles DTS 5.1 BLURAY
  • Subtitulos: Español Latino PGS
  • Resolución: 1920x1080p
  • Formato: MKV
  • Codec: H.264
  • Encoder: Dracarys
  • Mediainfo: Clic para Mostrar Datos Ver
  • Format                      : Matroska
    Format version              : Version 4
    File size                   : 23.6 GiB
    Duration                    : 2 h 7 min
    Overall bit rate mode       : Variable
    Overall bit rate            : 26.6 Mb/s
    Movie name                  : Lethal Weapon 4 (1998) REMUX 1080p Latino - CMHDD
    Encoded date                : UTC 2021-10-03 23:36:18
    Writing application         : mkvmerge v17.0.0 ('Be Ur Friend') 64-bit
    Writing library             : libebml v1.3.5 + libmatroska v1.4.8

    Video
    ID                          : 1
    Format                      : VC-1
    Format profile              : Advanced@L3
    Codec ID                    : V_MS/VFW/FOURCC / WVC1
    Codec ID/Hint               : Microsoft
    Duration                    : 2 h 7 min
    Bit rate                    : 24.0 Mb/s
    Width                       : 1 920 pixels
    Height                      : 1 080 pixels
    Display aspect ratio        : 16:9
    Frame rate mode             : Constant
    Frame rate                  : 23.976 (24000/1001) FPS
    Color space                 : YUV
    Chroma subsampling          : 4:2:0
    Bit depth                   : 8 bits
    Scan type                   : Progressive
    Compression mode            : Lossy
    Bits/(Pixel*Frame)          : 0.483
    Stream size                 : 21.4 GiB (90%)
    Default                     : Yes
    Forced                      : No

    Audio #1
    ID                          : 2
    Format                      : DTS XLL
    Format/Info                 : Digital Theater Systems
    Commercial name             : DTS-HD Master Audio
    Codec ID                    : A_DTS
    Duration                    : 2 h 7 min
    Bit rate mode               : Variable
    Bit rate                    : 2 358 kb/s
    Channel(s)                  : 6 channels
    Channel layout              : C L R Ls Rs LFE
    Sampling rate               : 48.0 kHz
    Frame rate                  : 93.750 FPS (512 SPF)
    Bit depth                   : 16 bits
    Compression mode            : Lossless
    Stream size                 : 2.10 GiB (9%)
    Language                    : English
    Default                     : No
    Forced                      : No

    Audio #2
    ID                          : 3
    Format                      : AC-3
    Format/Info                 : Audio Coding 3
    Commercial name             : Dolby Digital
    Format settings             : Dolby Surround
    Codec ID                    : A_AC3
    Duration                    : 2 h 7 min
    Bit rate mode               : Constant
    Bit rate                    : 192 kb/s
    Channel(s)                  : 2 channels
    Channel layout              : L R
    Sampling rate               : 48.0 kHz
    Frame rate                  : 31.250 FPS (1536 SPF)
    Compression mode            : Lossy
    Stream size                 : 175 MiB (1%)
    Language                    : Spanish
    Service kind                : Complete Main
    Default                     : Yes
    Forced                      : No

    Text
    ID                          : 4
    Format                      : PGS
    Muxing mode                 : zlib
    Codec ID                    : S_HDMV/PGS
    Codec ID/Info               : Picture based subtitle format used on BDs/HD-DVDs
    Duration                    : 2 h 6 min
    Bit rate                    : 34.0 kb/s
    Count of elements           : 3508
    Stream size                 : 30.9 MiB (0%)
    Language                    : Spanish
    Default                     : Yes
    Forced                      : No

    Menu
    00:00:00.000                : en:Chapter 1
    00:01:52.195                : en:Chapter 2
    00:03:51.606                : en:Chapter 3
    00:05:54.604                : en:Chapter 4
    00:09:47.587                : en:Chapter 5
    00:13:40.110                : en:Chapter 6
    00:15:31.931                : en:Chapter 7
    00:17:28.964                : en:Chapter 8
    00:20:32.439                : en:Chapter 9
    00:21:55.355                : en:Chapter 10
    00:25:28.109                : en:Chapter 11
    00:27:50.293                : en:Chapter 12
    00:32:20.480                : en:Chapter 13
    00:35:42.515                : en:Chapter 14
    00:38:17.962                : en:Chapter 15
    00:40:15.413                : en:Chapter 16
    00:43:04.123                : en:Chapter 17
    00:46:27.868                : en:Chapter 18
    00:49:28.507                : en:Chapter 19
    00:51:19.659                : en:Chapter 20
    00:52:14.965                : en:Chapter 21
    00:55:53.808                : en:Chapter 22
    00:58:45.396                : en:Chapter 23
    01:02:42.675                : en:Chapter 24
    01:06:32.780                : en:Chapter 25
    01:09:36.463                : en:Chapter 26
    01:11:34.206                : en:Chapter 27
    01:13:44.503                : en:Chapter 28
    01:15:37.449                : en:Chapter 29
    01:17:28.018                : en:Chapter 30
    01:20:01.505                : en:Chapter 31
    01:22:38.453                : en:Chapter 32
    01:27:29.202                : en:Chapter 33
    01:31:05.918                : en:Chapter 34
    01:33:03.035                : en:Chapter 35
    01:35:37.106                : en:Chapter 36
    01:38:03.919                : en:Chapter 37
    01:40:33.610                : en:Chapter 38
    01:43:51.475                : en:Chapter 39
    01:46:22.667                : en:Chapter 40
    01:47:29.985                : en:Chapter 41
    01:50:10.604                : en:Chapter 42
    01:53:53.368                : en:Chapter 43
    01:58:03.117                : en:Chapter 44
    02:00:15.208                : en:Chapter 45

  • Peso: 23.6 GiB

Sinopsis

La pareja de policías formada por Martin Riggs y Roger Murtaugh vuelve a la carga para enfrentarse a un capo de la mafia asiática que ha extendido sus actividades a Los Angeles. En la investigación les ayudará un joven policía responsable de los quebraderos de cabeza familiares de Murtaugh, ya que ha dejado embarazada a su hija. En casa de Riggs, las cosas también se complican cuando su compañera espera un hijo y amenaza con hacerle pasar por el altar.

Ficha técnica

Video trailer de la película

Enlaces de descarga

Rip de Bluray

Descargar Lethal Weapon 4 (1998) REMUX 1080p Latino – CMHDD


Aportes de DPeliculasHDmega la pass es:dpeliculashdmega.org Aportes de CinemaniaHD la pass es:cinemaniahdd.com
Guardado en : Acción , Aventura , Comedia , Crimen , Suspenso

Películas relacionadas

descargar Lethal Weapon 4 (1998) REMUX 1080p Latino – CMHDD Full 1080p 1080p gratis, Lethal Weapon 4 (1998) REMUX 1080p Latino – CMHDD Full 1080p mega 1 link, Lethal Weapon 4 (1998) REMUX 1080p Latino – CMHDD Full 1080p pelicula completa, descargar Lethal Weapon 4 (1998) REMUX 1080p Latino – CMHDD Full 1080p gratis en mega.

Lethal Weapon 4 (1998) REMUX 1080p Latino – CMHDD pelicula full hd, Lethal Weapon 4 (1998) REMUX 1080p Latino – CMHDD mega latino, Lethal Weapon 4 (1998) REMUX 1080p Latino – CMHDD 4k latino, Lethal Weapon 4 (1998) REMUX 1080p Latino – CMHDD pelicula completa, Lethal Weapon 4 (1998) REMUX 1080p Latino – CMHDD descargar gratis, descargar Lethal Weapon 4 (1998) REMUX 1080p Latino – CMHDD pelicula latino, Lethal Weapon 4 (1998) REMUX 1080p Latino – CMHDD 1 link mega, Lethal Weapon 4 (1998) REMUX 1080p Latino – CMHDD 1 link google drive, Lethal Weapon 4 (1998) REMUX 1080p Latino – CMHDD hd 1080p latino.
Comentarios 0