×

¿Problemas para descargar con Mozilla, EDGE? Deshabilita la opción "Abrir vinculos en una pestaña nueva" tal como lo muestra ésta imagen.

Lethal Weapon 3 (1992) REMUX 1080p Latino – CMHDD

144 vistas

Información de Lethal Weapon 3 (1992) REMUX 1080p Latino – CMHDD

Datos de la película

  • Calidad: Full 1080p
  • Audio: Español Latino AC3 1.0 BLURAY - Ingles DTS 5.1 BLURAY
  • Subtitulos: Español Latino PGS
  • Resolución: 1920x1080p
  • Formato: MKV
  • Codec: H.264
  • Encoder: Dracarys
  • Mediainfo: Clic para Mostrar Datos Ver
  • Format                      : Matroska
    Format version              : Version 4
    File size                   : 21.7 GiB
    Duration                    : 1 h 57 min
    Overall bit rate mode       : Variable
    Overall bit rate            : 26.3 Mb/s
    Movie name                  : Lethal Weapon 3 (1992) REMUX 1080p Latino - CMHDD
    Encoded date                : UTC 2021-10-03 23:24:49
    Writing application         : mkvmerge v17.0.0 ('Be Ur Friend') 64-bit
    Writing library             : libebml v1.3.5 + libmatroska v1.4.8

    Video
    ID                          : 1
    Format                      : VC-1
    Format profile              : Advanced@L3
    Codec ID                    : V_MS/VFW/FOURCC / WVC1
    Codec ID/Hint               : Microsoft
    Duration                    : 1 h 57 min
    Bit rate                    : 23.8 Mb/s
    Width                       : 1 920 pixels
    Height                      : 1 080 pixels
    Display aspect ratio        : 16:9
    Frame rate mode             : Constant
    Frame rate                  : 23.976 (24000/1001) FPS
    Color space                 : YUV
    Chroma subsampling          : 4:2:0
    Bit depth                   : 8 bits
    Scan type                   : Progressive
    Compression mode            : Lossy
    Bits/(Pixel*Frame)          : 0.479
    Stream size                 : 19.6 GiB (90%)
    Default                     : Yes
    Forced                      : No

    Audio #1
    ID                          : 2
    Format                      : DTS XLL
    Format/Info                 : Digital Theater Systems
    Commercial name             : DTS-HD Master Audio
    Codec ID                    : A_DTS
    Duration                    : 1 h 57 min
    Bit rate mode               : Variable
    Bit rate                    : 2 307 kb/s
    Channel(s)                  : 6 channels
    Channel layout              : C L R Ls Rs LFE
    Sampling rate               : 48.0 kHz
    Frame rate                  : 93.750 FPS (512 SPF)
    Bit depth                   : 16 bits
    Compression mode            : Lossless
    Stream size                 : 1.90 GiB (9%)
    Language                    : English
    Default                     : No
    Forced                      : No

    Audio #2
    ID                          : 3
    Format                      : AC-3
    Format/Info                 : Audio Coding 3
    Commercial name             : Dolby Digital
    Codec ID                    : A_AC3
    Duration                    : 1 h 57 min
    Bit rate mode               : Constant
    Bit rate                    : 192 kb/s
    Channel(s)                  : 1 channel
    Channel layout              : C
    Sampling rate               : 48.0 kHz
    Frame rate                  : 31.250 FPS (1536 SPF)
    Compression mode            : Lossy
    Stream size                 : 162 MiB (1%)
    Language                    : Spanish
    Service kind                : Complete Main
    Default                     : Yes
    Forced                      : No

    Text
    ID                          : 4
    Format                      : PGS
    Muxing mode                 : zlib
    Codec ID                    : S_HDMV/PGS
    Codec ID/Info               : Picture based subtitle format used on BDs/HD-DVDs
    Duration                    : 1 h 56 min
    Bit rate                    : 35.0 kb/s
    Count of elements           : 3586
    Stream size                 : 29.1 MiB (0%)
    Language                    : Spanish
    Default                     : No
    Forced                      : No

    Menu
    00:00:00.000                : en:Chapter 1
    00:01:39.182                : en:Chapter 2
    00:07:48.676                : en:Chapter 3
    00:10:05.062                : en:Chapter 4
    00:15:11.744                : en:Chapter 5
    00:20:08.832                : en:Chapter 6
    00:22:06.450                : en:Chapter 7
    00:24:36.975                : en:Chapter 8
    00:29:16.421                : en:Chapter 9
    00:37:00.593                : en:Chapter 10
    00:43:34.028                : en:Chapter 11
    00:49:31.551                : en:Chapter 12
    00:53:44.262                : en:Chapter 13
    00:56:17.791                : en:Chapter 14
    00:58:06.483                : en:Chapter 15
    01:00:42.347                : en:Chapter 16
    01:05:49.111                : en:Chapter 17
    01:11:41.422                : en:Chapter 18
    01:14:59.745                : en:Chapter 19
    01:18:15.982                : en:Chapter 20
    01:22:29.361                : en:Chapter 21
    01:24:37.197                : en:Chapter 22
    01:27:21.945                : en:Chapter 23
    01:29:59.268                : en:Chapter 24
    01:34:44.178                : en:Chapter 25
    01:37:15.329                : en:Chapter 26
    01:42:34.606                : en:Chapter 27
    01:46:24.628                : en:Chapter 28
    01:48:26.458                : en:Chapter 29
    01:51:44.030                : en:Chapter 30
    01:57:05.018                : en:Chapter 31

  • Peso: 21.7 GiB

Sinopsis

Riggs y Roger son una pareja de policías de Los Ángeles que se enfrentan a un difícil caso. Armas confiscadas y a punto de ser destruidas han desaparecido de las dependencias oficiales y están llegando a los delincuentes más peligrosos de la ciudad. El responsable resulta ser Travis, antiguo teniente expulsado del cuerpo por corrupción.

Ficha técnica

Video trailer de la película

Enlaces de descarga

Rip de Bluray

Descargar Lethal Weapon 3 (1992) REMUX 1080p Latino – CMHDD


Aportes de DPeliculasHDmega la pass es:dpeliculashdmega.org Aportes de CinemaniaHD la pass es:cinemaniahdd.com
Guardado en : Acción , Aventura , Comedia , Crimen , Suspenso

Películas relacionadas

  • Shotgun Wedding (2022) AMZN WEB-DL 1080p Latino

    Shotgun Wedding (2022) AMZN WEB-DL 1080p Latino

    2022
    Shotgun Wedding (2022) AMZN WEB-DL 1080p Latino

    1h 41m 2022

    Darcy y Tom reúnen a sus familias para la boda de destino definitiva, pero cuando toman como rehenes...

    Director: Jason Moore

    Género: Acción

    Actores: Steve Coulter

  • M3GAN (2023) AMZN WEB-DL 4K UHD HDR Latino

    M3GAN (2023) AMZN WEB-DL 4K UHD HDR Latino

    2022
    M3GAN (2023) AMZN WEB-DL 4K UHD HDR Latino

    1h 42m 2022

    Descargar M3GAN (2023) AMZN WEB-DL 4K UHD HDR Latino. Cuando Gemma se convierte en la cuidadora de su...

    Director: Stephen W. Moore

    Género: 4K HDR

    Actores: Violet McGraw

  • M3GAN (2022) MA WEB-DL 1080p Latino

    M3GAN (2022) MA WEB-DL 1080p Latino

    2022
    M3GAN (2022) MA WEB-DL 1080p Latino

    1h 42m 2022

    Descargar M3GAN (2022) MA WEB-DL 1080p Latino. Cuando Gemma se convierte en la cuidadora de su sobrina...

    Director: Stephen W. Moore

    Género: Ciencia ficción

    Actores: Violet McGraw

  • Mar de sangre (2022) WEB-DL 1080p Latino

    Mar de sangre (2022) WEB-DL 1080p Latino

    2022
    Mar de sangre (2022) WEB-DL 1080p Latino

    1h 27m 2022

    Descargar Mar de sangre (2022) WEB-DL 1080p Latino. Un grupo de amigos que disfrutan de un fin de semana...

    Director: James Nunn

    Género: Acción

    Actores: Thomas Michael Flynn

descargar Lethal Weapon 3 (1992) REMUX 1080p Latino – CMHDD Full 1080p 1080p gratis, Lethal Weapon 3 (1992) REMUX 1080p Latino – CMHDD Full 1080p mega 1 link, Lethal Weapon 3 (1992) REMUX 1080p Latino – CMHDD Full 1080p pelicula completa, descargar Lethal Weapon 3 (1992) REMUX 1080p Latino – CMHDD Full 1080p gratis en mega.

Lethal Weapon 3 (1992) REMUX 1080p Latino – CMHDD pelicula full hd, Lethal Weapon 3 (1992) REMUX 1080p Latino – CMHDD mega latino, Lethal Weapon 3 (1992) REMUX 1080p Latino – CMHDD 4k latino, Lethal Weapon 3 (1992) REMUX 1080p Latino – CMHDD pelicula completa, Lethal Weapon 3 (1992) REMUX 1080p Latino – CMHDD descargar gratis, descargar Lethal Weapon 3 (1992) REMUX 1080p Latino – CMHDD pelicula latino, Lethal Weapon 3 (1992) REMUX 1080p Latino – CMHDD 1 link mega, Lethal Weapon 3 (1992) REMUX 1080p Latino – CMHDD 1 link google drive, Lethal Weapon 3 (1992) REMUX 1080p Latino – CMHDD hd 1080p latino.
Comentarios 0