×

¿Problemas para descargar con Mozilla, EDGE? Deshabilita la opción "Abrir vinculos en una pestaña nueva" tal como lo muestra ésta imagen.

Lethal Weapon 2 (1989) REMUX 1080p Latino – CMHDD

103 vistas

Información de Lethal Weapon 2 (1989) REMUX 1080p Latino – CMHDD

Datos de la película

  • Calidad: Full 1080p
  • Audio: Español Latino AC3 1.0 BLURAY - Ingles DTS 5.1 BLURAY
  • Subtitulos: Español Latino PGS
  • Resolución: 1920x1080p
  • Formato: MKV
  • Codec: H.264
  • Encoder: Dracarys
  • Mediainfo: Clic para Mostrar Datos Ver
  • Format                      : Matroska
    Format version              : Version 4
    File size                   : 21.1 GiB
    Duration                    : 1 h 54 min
    Overall bit rate mode       : Variable
    Overall bit rate            : 26.4 Mb/s
    Movie name                  : Lethal Weapon 2 (1989) REMUX 1080p Latino - CMHDD
    Encoded date                : UTC 2021-10-03 23:13:05
    Writing application         : mkvmerge v17.0.0 ('Be Ur Friend') 64-bit
    Writing library             : libebml v1.3.5 + libmatroska v1.4.8

    Video
    ID                          : 1
    Format                      : VC-1
    Format profile              : Advanced@L3
    Codec ID                    : V_MS/VFW/FOURCC / WVC1
    Codec ID/Hint               : Microsoft
    Duration                    : 1 h 54 min
    Bit rate                    : 24.0 Mb/s
    Width                       : 1 920 pixels
    Height                      : 1 080 pixels
    Display aspect ratio        : 16:9
    Frame rate mode             : Constant
    Frame rate                  : 23.976 (24000/1001) FPS
    Color space                 : YUV
    Chroma subsampling          : 4:2:0
    Bit depth                   : 8 bits
    Scan type                   : Progressive
    Compression mode            : Lossy
    Bits/(Pixel*Frame)          : 0.482
    Stream size                 : 19.2 GiB (91%)
    Default                     : Yes
    Forced                      : No

    Audio #1
    ID                          : 2
    Format                      : DTS XLL
    Format/Info                 : Digital Theater Systems
    Commercial name             : DTS-HD Master Audio
    Codec ID                    : A_DTS
    Duration                    : 1 h 54 min
    Bit rate mode               : Variable
    Bit rate                    : 2 257 kb/s
    Channel(s)                  : 6 channels
    Channel layout              : C L R Ls Rs LFE
    Sampling rate               : 48.0 kHz
    Frame rate                  : 93.750 FPS (512 SPF)
    Bit depth                   : 16 bits
    Compression mode            : Lossless
    Stream size                 : 1.80 GiB (9%)
    Language                    : English
    Default                     : No
    Forced                      : No

    Audio #2
    ID                          : 3
    Format                      : AC-3
    Format/Info                 : Audio Coding 3
    Commercial name             : Dolby Digital
    Format settings             : Dolby Surround
    Codec ID                    : A_AC3
    Duration                    : 1 h 54 min
    Bit rate mode               : Constant
    Bit rate                    : 192 kb/s
    Channel(s)                  : 2 channels
    Channel layout              : L R
    Sampling rate               : 48.0 kHz
    Frame rate                  : 31.250 FPS (1536 SPF)
    Compression mode            : Lossy
    Stream size                 : 157 MiB (1%)
    Language                    : Spanish
    Service kind                : Complete Main
    Default                     : Yes
    Forced                      : No

    Text
    ID                          : 4
    Format                      : PGS
    Muxing mode                 : zlib
    Codec ID                    : S_HDMV/PGS
    Codec ID/Info               : Picture based subtitle format used on BDs/HD-DVDs
    Duration                    : 1 h 53 min
    Bit rate                    : 26.2 kb/s
    Count of elements           : 2546
    Stream size                 : 21.4 MiB (0%)
    Language                    : Spanish
    Default                     : No
    Forced                      : No

    Menu
    00:00:00.000                : en:Chapter 1
    00:07:51.387                : en:Chapter 2
    00:10:00.266                : en:Chapter 3
    00:11:20.262                : en:Chapter 4
    00:12:58.903                : en:Chapter 5
    00:16:26.110                : en:Chapter 6
    00:18:21.141                : en:Chapter 7
    00:21:42.009                : en:Chapter 8
    00:23:42.003                : en:Chapter 9
    00:25:56.846                : en:Chapter 10
    00:30:25.156                : en:Chapter 11
    00:33:51.821                : en:Chapter 12
    00:35:59.448                : en:Chapter 13
    00:39:39.794                : en:Chapter 14
    00:42:38.430                : en:Chapter 15
    00:43:58.927                : en:Chapter 16
    00:45:34.064                : en:Chapter 17
    00:47:12.120                : en:Chapter 18
    00:48:32.409                : en:Chapter 19
    00:50:32.404                : en:Chapter 20
    00:51:44.476                : en:Chapter 21
    00:55:07.220                : en:Chapter 22
    01:00:13.526                : en:Chapter 23
    01:06:37.410                : en:Chapter 24
    01:07:56.489                : en:Chapter 25
    01:12:04.111                : en:Chapter 26
    01:15:03.540                : en:Chapter 27
    01:19:24.926                : en:Chapter 28
    01:24:13.214                : en:Chapter 29
    01:26:41.029                : en:Chapter 30
    01:28:06.364                : en:Chapter 31
    01:30:30.007                : en:Chapter 32
    01:33:54.629                : en:Chapter 33
    01:37:22.086                : en:Chapter 34
    01:41:08.520                : en:Chapter 35
    01:43:15.147                : en:Chapter 36
    01:45:36.121                : en:Chapter 37
    01:46:36.598                : en:Chapter 38
    01:49:30.188                : en:Chapter 39

  • Peso: 21.1 GiB

Sinopsis

Una pareja de policías tiene como misión proteger a un individuo que va a testificar en contra de una organización de traficantes de droga. Las cosas se complican cuando uno de ellos decide iniciar la investigación por su cuenta sin comunicarlo a la comisaría.

Ficha técnica

Video trailer de la película

Enlaces de descarga

Rip de Bluray

Descargar Lethal Weapon 2 (1989) REMUX 1080p Latino – CMHDD


Aportes de DPeliculasHDmega la pass es:dpeliculashdmega.org Aportes de CinemaniaHD la pass es:cinemaniahdd.com
Guardado en : Acción , Aventura , Comedia , Crimen , Suspenso

Películas relacionadas

descargar Lethal Weapon 2 (1989) REMUX 1080p Latino – CMHDD Full 1080p 1080p gratis, Lethal Weapon 2 (1989) REMUX 1080p Latino – CMHDD Full 1080p mega 1 link, Lethal Weapon 2 (1989) REMUX 1080p Latino – CMHDD Full 1080p pelicula completa, descargar Lethal Weapon 2 (1989) REMUX 1080p Latino – CMHDD Full 1080p gratis en mega.

Lethal Weapon 2 (1989) REMUX 1080p Latino – CMHDD pelicula full hd, Lethal Weapon 2 (1989) REMUX 1080p Latino – CMHDD mega latino, Lethal Weapon 2 (1989) REMUX 1080p Latino – CMHDD 4k latino, Lethal Weapon 2 (1989) REMUX 1080p Latino – CMHDD pelicula completa, Lethal Weapon 2 (1989) REMUX 1080p Latino – CMHDD descargar gratis, descargar Lethal Weapon 2 (1989) REMUX 1080p Latino – CMHDD pelicula latino, Lethal Weapon 2 (1989) REMUX 1080p Latino – CMHDD 1 link mega, Lethal Weapon 2 (1989) REMUX 1080p Latino – CMHDD 1 link google drive, Lethal Weapon 2 (1989) REMUX 1080p Latino – CMHDD hd 1080p latino.
Comentarios 0