×

¿Problemas para descargar con Mozilla, EDGE? Deshabilita la opción "Abrir vinculos en una pestaña nueva" tal como lo muestra ésta imagen.

Lethal Weapon (1987) REMUX 1080p Latino – CMHDD

118 vistas

Información de Lethal Weapon (1987) REMUX 1080p Latino – CMHDD

Datos de la película

  • Calidad: Full 1080p
  • Audio: Español Latino AC3 1.0 BLURAY - Ingles DTS 5.1 BLURAY
  • Subtitulos: Español Latino PGS
  • Resolución: 1920x1080p
  • Formato: MKV
  • Codec: H.264
  • Encoder: Dracarys
  • Mediainfo: Clic para Mostrar Datos Ver
  • Format                      : Matroska
    Format version              : Version 4
    File size                   : 20.3 GiB
    Duration                    : 1 h 49 min
    Overall bit rate mode       : Variable
    Overall bit rate            : 26.5 Mb/s
    Movie name                  : Lethal Weapon (1987) REMUX 1080p Latino - CMHDD
    Encoded date                : UTC 2021-10-03 22:51:21
    Writing application         : mkvmerge v17.0.0 ('Be Ur Friend') 64-bit
    Writing library             : libebml v1.3.5 + libmatroska v1.4.8

    Video
    ID                          : 1
    Format                      : VC-1
    Format profile              : Advanced@L3
    Codec ID                    : V_MS/VFW/FOURCC / WVC1
    Codec ID/Hint               : Microsoft
    Duration                    : 1 h 49 min
    Bit rate                    : 24.0 Mb/s
    Width                       : 1 920 pixels
    Height                      : 1 080 pixels
    Display aspect ratio        : 16:9
    Frame rate mode             : Constant
    Frame rate                  : 23.976 (24000/1001) FPS
    Color space                 : YUV
    Chroma subsampling          : 4:2:0
    Bit depth                   : 8 bits
    Scan type                   : Progressive
    Compression mode            : Lossy
    Bits/(Pixel*Frame)          : 0.484
    Stream size                 : 18.4 GiB (91%)
    Default                     : Yes
    Forced                      : No

    Audio #1
    ID                          : 2
    Format                      : DTS XLL
    Format/Info                 : Digital Theater Systems
    Commercial name             : DTS-HD Master Audio
    Codec ID                    : A_DTS
    Duration                    : 1 h 49 min
    Bit rate mode               : Variable
    Bit rate                    : 2 276 kb/s
    Channel(s)                  : 6 channels
    Channel layout              : C L R Ls Rs LFE
    Sampling rate               : 48.0 kHz
    Frame rate                  : 93.750 FPS (512 SPF)
    Bit depth                   : 16 bits
    Compression mode            : Lossless
    Stream size                 : 1.74 GiB (9%)
    Language                    : English
    Default                     : No
    Forced                      : No

    Audio #2
    ID                          : 3
    Format                      : AC-3
    Format/Info                 : Audio Coding 3
    Commercial name             : Dolby Digital
    Codec ID                    : A_AC3
    Duration                    : 1 h 49 min
    Bit rate mode               : Constant
    Bit rate                    : 192 kb/s
    Channel(s)                  : 1 channel
    Channel layout              : C
    Sampling rate               : 48.0 kHz
    Frame rate                  : 31.250 FPS (1536 SPF)
    Compression mode            : Lossy
    Stream size                 : 151 MiB (1%)
    Language                    : Spanish
    Service kind                : Complete Main
    Default                     : Yes
    Forced                      : No

    Text
    ID                          : 4
    Format                      : PGS
    Muxing mode                 : zlib
    Codec ID                    : S_HDMV/PGS
    Codec ID/Info               : Picture based subtitle format used on BDs/HD-DVDs
    Duration                    : 1 h 48 min
    Bit rate                    : 25.1 kb/s
    Count of elements           : 2262
    Stream size                 : 19.5 MiB (0%)
    Language                    : Spanish
    Default                     : No
    Forced                      : No

    Menu
    00:00:00.000                : en:Chapter 1
    00:04:26.099                : en:Chapter 2
    00:11:13.839                : en:Chapter 3
    00:14:53.601                : en:Chapter 4
    00:18:13.300                : en:Chapter 5
    00:23:05.008                : en:Chapter 6
    00:25:58.390                : en:Chapter 7
    00:28:36.047                : en:Chapter 8
    00:36:45.786                : en:Chapter 9
    00:42:59.577                : en:Chapter 10
    00:54:12.707                : en:Chapter 11
    00:57:39.205                : en:Chapter 12
    01:03:44.237                : en:Chapter 13
    01:08:10.294                : en:Chapter 14
    01:10:25.930                : en:Chapter 15
    01:15:17.513                : en:Chapter 16
    01:23:47.522                : en:Chapter 17
    01:29:30.365                : en:Chapter 18
    01:36:55.476                : en:Chapter 19
    01:38:54.929                : en:Chapter 20
    01:43:03.010                : en:Chapter 21
    01:43:48.222                : en:Chapter 22
    01:44:45.904                : en:Chapter 23

  • Peso: 20.3 GiB

Sinopsis

Antiguos soldados de la guerra del Vietnam han creado una poderosa red de tráfico de droga. Dos policias reciben el encargo de esclarecer un asesinato en el que esa peligrosa organización se halla implicada.

Ficha técnica

Video trailer de la película

Enlaces de descarga

Rip de Bluray

Descargar Lethal Weapon (1987) REMUX 1080p Latino – CMHDD


Aportes de DPeliculasHDmega la pass es:dpeliculashdmega.org Aportes de CinemaniaHD la pass es:cinemaniahdd.com
Guardado en : Acción , Aventura , Comedia , Crimen , Suspenso

Películas relacionadas

  • Zola (2020) HD 1080p Latino

    Zola (2020) HD 1080p Latino

    2020
    Zola (2020) HD 1080p Latino

    1h 26m 2020

    Descargar Zola (2020) HD 1080p Latino. Una camarera accede a acompañar a una bailarina exótica, su...

    Director: Sheri Davani

    Género: Comedia

    Actores: Ts Madison

  • Zola (2020) PLACEBO Full HD 1080p Latino

    Zola (2020) PLACEBO Full HD 1080p Latino

    2020
    Zola (2020) PLACEBO Full HD 1080p Latino

    1h 26m 2020

    Descargar Zola (2020) PLACEBO Full HD 1080p Latino. Una camarera accede a acompañar a una bailarina...

    Director: Sheri Davani

    Género: Comedia

    Actores: Ts Madison

  • Zola (2020) REMUX 1080p Latino

    Zola (2020) REMUX 1080p Latino

    2020
    Zola (2020) REMUX 1080p Latino

    1h 26m 2020

    Descargar Zola (2020) REMUX 1080p Latino. Una camarera accede a acompañar a una bailarina exótica,...

    Director: Sheri Davani

    Género: Comedia

    Actores: Ts Madison

descargar Lethal Weapon (1987) REMUX 1080p Latino – CMHDD Full 1080p 1080p gratis, Lethal Weapon (1987) REMUX 1080p Latino – CMHDD Full 1080p mega 1 link, Lethal Weapon (1987) REMUX 1080p Latino – CMHDD Full 1080p pelicula completa, descargar Lethal Weapon (1987) REMUX 1080p Latino – CMHDD Full 1080p gratis en mega.

Lethal Weapon (1987) REMUX 1080p Latino – CMHDD pelicula full hd, Lethal Weapon (1987) REMUX 1080p Latino – CMHDD mega latino, Lethal Weapon (1987) REMUX 1080p Latino – CMHDD 4k latino, Lethal Weapon (1987) REMUX 1080p Latino – CMHDD pelicula completa, Lethal Weapon (1987) REMUX 1080p Latino – CMHDD descargar gratis, descargar Lethal Weapon (1987) REMUX 1080p Latino – CMHDD pelicula latino, Lethal Weapon (1987) REMUX 1080p Latino – CMHDD 1 link mega, Lethal Weapon (1987) REMUX 1080p Latino – CMHDD 1 link google drive, Lethal Weapon (1987) REMUX 1080p Latino – CMHDD hd 1080p latino.
Comentarios 0