×

¿Problemas para descargar con Mozilla, EDGE? Deshabilita la opción "Abrir vinculos en una pestaña nueva" tal como lo muestra ésta imagen.

Las extraordinarias aventuras de Adèle Blanc-Sec (2010) 1080p Latino-CMHDD

57 vistas

Información de Las extraordinarias aventuras de Adèle Blanc-Sec (2010) 1080p Latino-CMHDD

Datos de la película

  • Calidad: 1080p
  • Audio: Se especifica abajo de la Sinopsis
  • Subtitulos: Español Latino SRT - Ingles SRT
  • Resolución: 1920x816p
  • Formato: MKV
  • Codec: H.264
  • Encoder: CinefiloCool
  • Mediainfo: Clic para Mostrar Datos Ver
  • The.Ext.Adv.Of.Adele.Blanc.Sec.2010.Bluray.1080p.x264.Latino-CC@CMHDD.mkv
    Format                      : Matroska
    Format version              : Version 4
    File size                   : 4.67 GiB
    Duration                    : 1 h 46 min
    Overall bit rate            : 6 259 kb/s
    Movie name                  : The Extraordinary Adventures of Adele Blanc-Sec (2010) CinemaniaHDD.Net
    Encoded date                : UTC 2024-03-10 02:19:00
    Writing application         : mkvmerge v56.1.0 ('My Friend') 64-bit
    Writing library             : libebml v1.4.2 + libmatroska v1.6.4
    Attachments                 : CINEMANIAHD.png

    Video
    ID                          : 1
    Format                      : AVC
    Format/Info                 : Advanced Video Codec
    Format profile              : High@L4
    Format settings             : CABAC / 4 Ref Frames
    Format settings, CABAC      : Yes
    Format settings, Reference  : 4 frames
    Codec ID                    : V_MPEG4/ISO/AVC
    Duration                    : 1 h 46 min
    Bit rate                    : 5 361 kb/s
    Width                       : 1 920 pixels
    Height                      : 816 pixels
    Display aspect ratio        : 2.35:1
    Frame rate mode             : Constant
    Frame rate                  : 23.976 FPS
    Color space                 : YUV
    Chroma subsampling          : 4:2:0
    Bit depth                   : 8 bits
    Scan type                   : Progressive
    Bits/(Pixel*Frame)          : 0.143
    Stream size                 : 4.00 GiB (86%)
    Title                       : HD1080p [CinemaniaHDD]
    Writing library             : x264 core 79
    Encoding settings           : cabac=1 / ref=4 / deblock=1:0:0 / analyse=0x3:0x113 / me=umh / subme=9 / psy=1 / psy_rd=1.0:0.0 / mixed_ref=1 / me_range=16 / chroma_me=1 / trellis=1 / 8x8dct=1 / cqm=0 / deadzone=21,11 / chroma_qp_offset=-2 / threads=12 / nr=0 / decimate=1 / mbaff=0 / constrained_intra=0 / bframes=3 / b_pyramid=0 / b_adapt=2 / b_bias=0 / direct=1 / wpredb=1 / wpredp=2 / keyint=240 / keyint_min=24 / scenecut=40 / rc_lookahead=50 / rc=2pass / mbtree=1 / bitrate=5361 / ratetol=1.0 / qcomp=0.60 / qpmin=10 / qpmax=51 / qpstep=4 / cplxblur=20.0 / qblur=0.5 / ip_ratio=1.40 / aq=1:1.00
    Language                    : English
    Default                     : Yes
    Forced                      : Yes
    Color range                 : Limited
    Color primaries             : BT.709
    Transfer characteristics    : BT.709
    Matrix coefficients         : BT.709

    Audio #1
    ID                          : 2
    Format                      : AC-3
    Format/Info                 : Audio Coding 3
    Commercial name             : Dolby Digital
    Codec ID                    : A_AC3
    Duration                    : 1 h 46 min
    Bit rate mode               : Constant
    Bit rate                    : 256 kb/s
    Channel(s)                  : 2 channels
    Channel layout              : L R
    Sampling rate               : 48.0 kHz
    Frame rate                  : 31.250 FPS (1536 SPF)
    Compression mode            : Lossy
    Stream size                 : 196 MiB (4%)
    Title                       : Español Latino [CinemaniaHDD]
    Language                    : Spanish
    Service kind                : Complete Main
    Default                     : Yes
    Forced                      : Yes

    Audio #2
    ID                          : 3
    Format                      : AC-3
    Format/Info                 : Audio Coding 3
    Commercial name             : Dolby Digital
    Codec ID                    : A_AC3
    Duration                    : 1 h 46 min
    Bit rate mode               : Constant
    Bit rate                    : 640 kb/s
    Channel(s)                  : 6 channels
    Channel layout              : L R C LFE Ls Rs
    Sampling rate               : 48.0 kHz
    Frame rate                  : 31.250 FPS (1536 SPF)
    Compression mode            : Lossy
    Stream size                 : 489 MiB (10%)
    Title                       : Frances [CinemaniaHDD]
    Language                    : French
    Service kind                : Complete Main
    Default                     : No
    Forced                      : No

    Text #1
    ID                          : 4
    Format                      : UTF-8
    Codec ID                    : S_TEXT/UTF8
    Codec ID/Info               : UTF-8 Plain Text
    Duration                    : 6 s 681 ms
    Bit rate                    : 38 b/s
    Count of elements           : 1
    Stream size                 : 32.0 Bytes (0%)
    Title                       : Forzados-SRT [CinemaniaHDD]
    Language                    : Spanish
    Default                     : Yes
    Forced                      : Yes

    Text #2
    ID                          : 5
    Format                      : UTF-8
    Codec ID                    : S_TEXT/UTF8
    Codec ID/Info               : UTF-8 Plain Text
    Duration                    : 1 h 39 min
    Bit rate                    : 46 b/s
    Count of elements           : 1246
    Stream size                 : 33.8 KiB (0%)
    Title                       : Español-SRT [CinemaniaHDD]
    Language                    : Spanish
    Default                     : No
    Forced                      : No

    Text #3
    ID                          : 6
    Format                      : UTF-8
    Codec ID                    : S_TEXT/UTF8
    Codec ID/Info               : UTF-8 Plain Text
    Duration                    : 1 h 39 min
    Bit rate                    : 43 b/s
    Count of elements           : 1155
    Stream size                 : 32.0 KiB (0%)
    Title                       : Ingles-SRT [CinemaniaHDD]
    Language                    : English
    Default                     : No
    Forced                      : No

    Menu
    00:00:00.000                : Chapter 1
    00:06:35.812                : Chapter 2
    00:10:38.179                : Chapter 3
    00:19:17.740                : Chapter 4
    00:25:13.012                : Chapter 5
    00:31:58.834                : Chapter 6
    00:36:30.814                : Chapter 7
    00:39:40.003                : Chapter 8
    00:52:06.665                : Chapter 9
    01:02:37.003                : Chapter 10
    01:06:07.380                : Chapter 11
    01:08:16.676                : Chapter 12
    01:18:29.622                : Chapter 13
    01:22:17.599                : Chapter 14
    01:35:58.419                : Chapter 15
    01:37:41.564                : Chapter 16
    01:46:45.441                : Chapter 17

  • Peso: 4.67 GiB

Sinopsis

Descargar Las extraordinarias aventuras de Adèle Blanc-Sec (2010) 1080p Latino-CMHDD. En 1912, mientras la intrépida periodista Adèle Blanc-Sec viaja a Egipto para enfrentarse a un grupo de momias, París se ve acosado por un misterioso pterodáctilo de 136 millones de años de antigüedad. Basada en un personaje de cómic del dibujante Jacques Tardi.

Español Latino AC3 2.0 – Frances AC3 54.1 Bluray

Ficha técnica

Video trailer de la película

Enlaces de descarga

Rip de Bluray

Descargar Las extraordinarias aventuras de Adèle Blanc-Sec (2010) 1080p Latino-CMHDD




Aportes de DPeliculasHDmega la pass es:dpeliculashdmega.org Aportes de CinemaniaHD la pass es:cinemaniahdd.com Aportes recientes:cinemaniahdd.net
Guardado en : Acción , Aventura , Fantasía , HD 1080p , Misterio

Películas relacionadas

descargar Las extraordinarias aventuras de Adèle Blanc-Sec (2010) 1080p Latino-CMHDD 1080p 1080p gratis, Las extraordinarias aventuras de Adèle Blanc-Sec (2010) 1080p Latino-CMHDD 1080p mega 1 link, Las extraordinarias aventuras de Adèle Blanc-Sec (2010) 1080p Latino-CMHDD 1080p pelicula completa, descargar Las extraordinarias aventuras de Adèle Blanc-Sec (2010) 1080p Latino-CMHDD 1080p gratis en mega.

Las extraordinarias aventuras de Adèle Blanc-Sec (2010) 1080p Latino-CMHDD pelicula full hd, Las extraordinarias aventuras de Adèle Blanc-Sec (2010) 1080p Latino-CMHDD mega latino, Las extraordinarias aventuras de Adèle Blanc-Sec (2010) 1080p Latino-CMHDD 4k latino, Las extraordinarias aventuras de Adèle Blanc-Sec (2010) 1080p Latino-CMHDD pelicula completa, Las extraordinarias aventuras de Adèle Blanc-Sec (2010) 1080p Latino-CMHDD descargar gratis, descargar Las extraordinarias aventuras de Adèle Blanc-Sec (2010) 1080p Latino-CMHDD pelicula latino, Las extraordinarias aventuras de Adèle Blanc-Sec (2010) 1080p Latino-CMHDD 1 link mega, Las extraordinarias aventuras de Adèle Blanc-Sec (2010) 1080p Latino-CMHDD 1 link google drive, Las extraordinarias aventuras de Adèle Blanc-Sec (2010) 1080p Latino-CMHDD hd 1080p latino.
Comentarios 0