×

¿Problemas para descargar con Mozilla, EDGE? Deshabilita la opción "Abrir vinculos en una pestaña nueva" tal como lo muestra ésta imagen.

Leonardo (2021) Primera Temporada AMZN WEB-DL 1080p Latino

2.589 vistas

Información de Leonardo (2021) Primera Temporada AMZN WEB-DL 1080p Latino

Datos de la película

  • Calidad: 1080p
  • Audio: Español Latino AC3 2.0 WEB-DL - Ingles AC3 5.1 WEB-DL
  • Subtitulos: Español Latino SRT
  • Resolución: 1920x960
  • Formato: MKV
  • Codec: H.264
  • Encoder: cinemaniahdd
  • Mediainfo: Clic para Mostrar Datos Ver
  • Leonardo T01E01 AMZN WEB-DL 1080p Latino [CNMNHDD].mkv
    Format                      : Matroska
    Format version              : Version 4
    File size                   : 3.84 GiB
    Duration                    : 53 min 45 s
    Overall bit rate            : 10.2 Mb/s
    Movie name                  : Leonardo S01E01 - Episode 1 [1080p] - CinemaniaHDD.Net
    Encoded date                : UTC 2022-03-08 02:13:59
    Writing application         : mkvmerge v56.1.0 ('My Friend') 64-bit
    Writing library             : libebml v1.4.2 + libmatroska v1.6.4

    Video
    ID                          : 1
    Format                      : AVC
    Format/Info                 : Advanced Video Codec
    Format profile              : High@L4
    Format settings             : CABAC / 4 Ref Frames
    Format settings, CABAC      : Yes
    Format settings, Reference  : 4 frames
    Codec ID                    : V_MPEG4/ISO/AVC
    Duration                    : 53 min 45 s
    Bit rate mode               : Constant
    Bit rate                    : 9 209 kb/s
    Nominal bit rate            : 10 000 kb/s
    Width                       : 1 920 pixels
    Height                      : 960 pixels
    Display aspect ratio        : 2.000
    Frame rate mode             : Constant
    Frame rate                  : 25.000 FPS
    Color space                 : YUV
    Chroma subsampling          : 4:2:0
    Bit depth                   : 8 bits
    Scan type                   : Progressive
    Bits/(Pixel*Frame)          : 0.200
    Stream size                 : 3.46 GiB (90%)
    Title                       : CinemaniaHDD
    Default                     : Yes
    Forced                      : No
    Color range                 : Limited
    Color primaries             : BT.709
    Transfer characteristics    : BT.709
    Matrix coefficients         : BT.709

    Audio #1
    ID                          : 2
    Format                      : AC-3
    Format/Info                 : Audio Coding 3
    Commercial name             : Dolby Digital
    Codec ID                    : A_AC3
    Duration                    : 53 min 45 s
    Bit rate mode               : Constant
    Bit rate                    : 384 kb/s
    Channel(s)                  : 2 channels
    Channel layout              : L R
    Sampling rate               : 48.0 kHz
    Frame rate                  : 31.250 FPS (1536 SPF)
    Compression mode            : Lossy
    Stream size                 : 148 MiB (4%)
    Title                       : Español latino [CinemaniaHDD]
    Language                    : Spanish
    Service kind                : Complete Main
    Default                     : Yes
    Forced                      : No

    Audio #2
    ID                          : 3
    Format                      : E-AC-3
    Format/Info                 : Enhanced AC-3
    Commercial name             : Dolby Digital Plus
    Codec ID                    : A_EAC3
    Duration                    : 53 min 45 s
    Bit rate mode               : Constant
    Bit rate                    : 640 kb/s
    Channel(s)                  : 6 channels
    Channel layout              : L R C LFE Ls Rs
    Sampling rate               : 48.0 kHz
    Frame rate                  : 31.250 FPS (1536 SPF)
    Compression mode            : Lossy
    Stream size                 : 246 MiB (6%)
    Title                       : Inglés [CinemaniaHDD]
    Language                    : English
    Service kind                : Complete Main
    Default                     : No
    Forced                      : No

    Text #1
    ID                          : 4
    Format                      : UTF-8
    Codec ID                    : S_TEXT/UTF8
    Codec ID/Info               : UTF-8 Plain Text
    Duration                    : 51 min 7 s
    Bit rate                    : 43 b/s
    Count of elements           : 531
    Stream size                 : 16.2 KiB (0%)
    Title                       : Español latino [CinemaniaHDD]
    Language                    : Spanish
    Default                     : No
    Forced                      : No

    Text #2
    ID                          : 5
    Format                      : UTF-8
    Codec ID                    : S_TEXT/UTF8
    Codec ID/Info               : UTF-8 Plain Text
    Duration                    : 52 min 28 s
    Bit rate                    : 45 b/s
    Count of elements           : 626
    Stream size                 : 17.5 KiB (0%)
    Title                       : Español latino (SDH) [CinemaniaHDD]
    Language                    : Spanish
    Default                     : No
    Forced                      : No

    Menu
    00:00:00.000                : Opening Credits
    00:01:16.000                : Scene 2
    00:11:11.000                : Scene 3
    00:20:51.000                : Scene 4
    00:31:57.000                : Scene 5
    00:39:44.000                : Scene 6
    00:52:25.000                : End Credits

     

  • Peso: 3.84 GiB Aprox ---- 29 GiB in 8 Chapters.

Sinopsis

Serie basada en la vida del polímata florentino Leonardo da Vinci, que buscará profundizar en el pasado de uno de los personajes más importantes del Renacimiento Italiano, periodo en el que desarrolló labores de pintor, poeta, urbanista, escultor y anatomista, entre otras.

Ficha técnica

Video trailer de la película

Enlaces de descarga

Rip de Bluray

Descargar Leonardo (2021) Primera Temporada AMZN WEB-DL 1080p Latino




Aportes de DPeliculasHDmega la pass es:dpeliculashdmega.org Aportes de CinemaniaHD la pass es:cinemaniahdd.com
Guardado en : Crimen , Drama , Series

Películas relacionadas

  • El discurso del Rey (2010) 1080p Latino

    El discurso del Rey (2010) 1080p Latino

    2010
    El discurso del Rey (2010) 1080p Latino

    1h 58m 2010

    Descargar El discurso del Rey (2010) 1080p Latino. El duque de York se convirtió en rey de Gran Bretaña...

    Director: Tom Hooper

    Género: Drama

    Actores: Tony Earnshaw

  • El discurso del Rey (2010) Full HD 1080p Latino

    El discurso del Rey (2010) Full HD 1080p Latino

    2010
    El discurso del Rey (2010) Full HD 1080p Latino

    1h 58m 2010

    Descargar El discurso del Rey (2010) Full HD 1080p Latino. El duque de York se convirtió en rey de Gran...

    Director: Tom Hooper

    Género: Drama

    Actores: Tony Earnshaw

  • El discurso del Rey (2010) REMUX 1080p Latino

    El discurso del Rey (2010) REMUX 1080p Latino

    2010
    El discurso del Rey (2010) REMUX 1080p Latino

    1h 58m 2010

    Descargar El discurso del Rey (2010) REMUX 1080p Latino. El duque de York se convirtió en rey de Gran...

    Director: Tom Hooper

    Género: Drama

    Actores: Tony Earnshaw

  • 8 Mile (2002) REMUX 4K HDR Latino – CMHDD

    8 Mile (2002) REMUX 4K HDR Latino – CMHDD

    2002
    8 Mile (2002) REMUX 4K HDR Latino – CMHDD

    1h 50m 2002

    Detroit, 1995. La promesa de potencia industrial se ha transformado en un hervidero de conflictos económicos...

    Director: Michael J. Moore

    Género: Drama

    Actores: Xzibit

descargar Leonardo (2021) Primera Temporada AMZN WEB-DL 1080p Latino 1080p 1080p gratis, Leonardo (2021) Primera Temporada AMZN WEB-DL 1080p Latino 1080p mega 1 link, Leonardo (2021) Primera Temporada AMZN WEB-DL 1080p Latino 1080p serie completa, descargar Leonardo (2021) Primera Temporada AMZN WEB-DL 1080p Latino 1080p gratis en mega.

Leonardo (2021) Primera Temporada AMZN WEB-DL 1080p Latino pelicula full hd, Leonardo (2021) Primera Temporada AMZN WEB-DL 1080p Latino mega latino, Leonardo (2021) Primera Temporada AMZN WEB-DL 1080p Latino 4k latino, Leonardo (2021) Primera Temporada AMZN WEB-DL 1080p Latino pelicula completa, Leonardo (2021) Primera Temporada AMZN WEB-DL 1080p Latino descargar gratis, descargar Leonardo (2021) Primera Temporada AMZN WEB-DL 1080p Latino pelicula latino, Leonardo (2021) Primera Temporada AMZN WEB-DL 1080p Latino 1 link mega, Leonardo (2021) Primera Temporada AMZN WEB-DL 1080p Latino 1 link google drive, Leonardo (2021) Primera Temporada AMZN WEB-DL 1080p Latino hd 1080p latino.
Comentarios 4
  • Wolfgang - 09 abril, 2022

    Excelente pagina, la calidad de esta serie es sin duda espectacular! Quisiera saber si subirán los capítulos restantes? Son la única pagina que tiene la serie en latino pero faltan esos últimos capítulos. Muchas gracias!

    • CinemaniaHDD - 12 abril, 2022

      se libera un capitulo los domingos, ya el domingo 17/04 se finaliza la serie.

  • Jhosep - 21 marzo, 2022

    cuando subiran los nuevos capitulos de the good doctor, porfavor