El perfecto Asesino (1994) International Cut 4K UHD HDR Latino

20 vistas
1 estrella2 estrellas3 estrellas4 estrellas5 estrellas (Ninguna valoración todavía)
Cargando...

Información de El perfecto Asesino (1994) International Cut 4K UHD HDR Latino

Datos de la película

  • Calidad: 4K HDR
  • Audio: Se especifica abajo de la Sinopsis
  • Subtitulos: Español Latino PGS - Ingles PGS
  • Resolución: 3840x1608p
  • Formato: MKV
  • Codec: HEVC
  • Encoder: CinefiloCool
  • Mediainfo: Clic para Mostrar Datos Ver
  • El Perfecto Asesino (1994) EXTENDED UHD HDR Latino-CMHDD.mkv
    Format                      : Matroska
    Format version              : Version 4
    File size                   : 32.6 GiB
    Duration                    : 2 h 12 min
    Overall bit rate            : 35.1 Mb/s
    Movie name                  : Léon, The Professional (1994) CinemaniaHDD.Net
    Encoded date                : UTC 2020-11-19 05:56:59
    Writing application         : mkvmerge v51.0.0 ('I Wish') 64-bit
    Writing library             : libebml v1.4.0 + libmatroska v1.6.2
    Attachments                 : CINEMANIAHD.png

    Video
    ID                          : 1
    Format                      : HEVC
    Format/Info                 : High Efficiency Video Coding
    Format profile              : Main 10@L5.1@High
    HDR format                  : SMPTE ST 2086, HDR10 compatible
    Codec ID                    : V_MPEGH/ISO/HEVC
    Duration                    : 2 h 12 min
    Bit rate                    : 34.2 Mb/s
    Width                       : 3 840 pixels
    Height                      : 1 608 pixels
    Display aspect ratio        : 2.40:1
    Frame rate mode             : Constant
    Frame rate                  : 23.976 (24000/1001) FPS
    Color space                 : YUV
    Chroma subsampling          : 4:2:0 (Type 2)
    Bit depth                   : 10 bits
    Bits/(Pixel*Frame)          : 0.231
    Stream size                 : 31.7 GiB (97%)
    Title                       : 2160p HDR [Bluray]
    Writing library             : x265 2.6+4-f7498acb3874:[Windows][GCC 7.2.0][64 bit] 10bit
    Encoding settings           : cpuid=1173503 / frame-threads=4 / numa-pools=16 / wpp / no-pmode / no-pme / no-psnr / no-ssim / log-level=2 / input-csp=1 / input-res=3840x1608 / interlace=0 / total-frames=191280 / level-idc=51 / high-tier=1 / uhd-bd=0 / ref=4 / no-allow-non-conformance / repeat-headers / annexb / aud / hrd / info / hash=0 / no-temporal-layers / no-open-gop / min-keyint=24 / keyint=240 / bframes=4 / b-adapt=2 / b-pyramid / bframe-bias=0 / rc-lookahead=25 / lookahead-slices=4 / scenecut=40 / no-intra-refresh / ctu=64 / min-cu-size=8 / rect / no-amp / max-tu-size=32 / tu-inter-depth=1 / tu-intra-depth=1 / limit-tu=0 / rdoq-level=2 / dynamic-rd=0.00 / no-ssim-rd / signhide / no-tskip / nr-intra=0 / nr-inter=0 / no-constrained-intra / no-strong-intra-smoothing / max-merge=3 / limit-refs=3 / limit-modes / me=3 / subme=3 / merange=57 / temporal-mvp / weightp / no-weightb / no-analyze-src-pics / deblock=-3:-3 / no-sao / no-sao-non-deblock / rd=4 / no-early-skip / rskip / no-fast-intra / no-tskip-fast / no-cu-lossless / no-b-intra / no-splitrd-skip / rdpenalty=0 / psy-rd=2.00 / psy-rdoq=1.00 / no-rd-refine / analysis-reuse-mode=0 / no-lossless / cbqpoffs=0 / crqpoffs=0 / rc=crf / crf=18.5 / qcomp=0.60 / qpstep=4 / stats-write=0 / stats-read=0 / vbv-maxrate=160000 / vbv-bufsize=160000 / vbv-init=0.9 / crf-max=0.0 / crf-min=0.0 / ipratio=1.40 / pbratio=1.30 / aq-mode=1 / aq-strength=1.00 / cutree / zone-count=0 / no-strict-cbr / qg-size=32 / no-rc-grain / qpmax=69 / qpmin=0 / no-const-vbv / sar=1 / overscan=0 / videoformat=5 / range=0 / colorprim=9 / transfer=16 / colormatrix=9 / chromaloc=1 / chromaloc-top=2 / chromaloc-bottom=2 / display-window=0 / master-display=G(13250,34500)B(7500,3000)R(34000,16000)WP(15635,16450)L(40000000,50) / max-cll=3696,314 / min-luma=0 / max-luma=1023 / log2-max-poc-lsb=8 / vui-timing-info / vui-hrd-info / slices=1 / opt-qp-pps / opt-ref-list-length-pps / no-multi-pass-opt-rps / scenecut-bias=0.05 / no-opt-cu-delta-qp / no-aq-motion / hdr / hdr-opt / no-dhdr10-opt / analysis-reuse-level=5 / scale-factor=0 / refine-intra=0 / refine-inter=0 / refine-mv=0 / no-limit-sao / ctu-info=0 / no-lowpass-dct / refine-mv-type=0 / copy-pic=1
    Default                     : Yes
    Forced                      : No
    Color range                 : Limited
    Color primaries             : BT.2020
    Transfer characteristics    : PQ
    Matrix coefficients         : BT.2020 non-constant
    Mastering display color pri : Display P3
    Mastering display luminance : min: 0.0050 cd/m2, max: 4000 cd/m2
    Maximum Content Light Level : 3696 cd/m2
    Maximum Frame-Average Light : 314 cd/m2

    Audio #1
    ID                          : 2
    Format                      : AC-3
    Format/Info                 : Audio Coding 3
    Commercial name             : Dolby Digital
    Codec ID                    : A_AC3
    Duration                    : 2 h 12 min
    Bit rate mode               : Constant
    Bit rate                    : 256 kb/s
    Channel(s)                  : 2 channels
    Channel layout              : L R
    Sampling rate               : 48.0 kHz
    Frame rate                  : 31.250 FPS (1536 SPF)
    Compression mode            : Lossy
    Stream size                 : 243 MiB (1%)
    Title                       : Español Latino [CinemaniaHDD]
    Language                    : Spanish
    Service kind                : Complete Main
    Default                     : Yes
    Forced                      : No

    Audio #2
    ID                          : 3
    Format                      : AC-3
    Format/Info                 : Audio Coding 3
    Commercial name             : Dolby Digital
    Codec ID                    : A_AC3
    Duration                    : 2 h 12 min
    Bit rate mode               : Constant
    Bit rate                    : 640 kb/s
    Channel(s)                  : 6 channels
    Channel layout              : L R C LFE Ls Rs
    Sampling rate               : 48.0 kHz
    Frame rate                  : 31.250 FPS (1536 SPF)
    Compression mode            : Lossy
    Stream size                 : 609 MiB (2%)
    Title                       : Ingles [CinemaniaHDD]
    Language                    : English
    Service kind                : Complete Main
    Default                     : No
    Forced                      : No

    Text #1
    ID                          : 4
    Format                      : PGS
    Muxing mode                 : zlib
    Codec ID                    : S_HDMV/PGS
    Codec ID/Info               : Picture based subtitle format used on BDs/HD-DVDs
    Duration                    : 2 h 6 min
    Bit rate                    : 21.6 kb/s
    Count of elements           : 2247
    Stream size                 : 19.6 MiB (0%)
    Title                       : Sub_Esp [PGS]
    Language                    : Spanish
    Default                     : No
    Forced                      : No

    Text #2
    ID                          : 5
    Format                      : PGS
    Muxing mode                 : zlib
    Codec ID                    : S_HDMV/PGS
    Codec ID/Info               : Picture based subtitle format used on BDs/HD-DVDs
    Duration                    : 2 h 7 min
    Bit rate                    : 24.0 kb/s
    Count of elements           : 2122
    Stream size                 : 21.8 MiB (0%)
    Title                       : Sub_Eng [PGS]
    Language                    : English
    Default                     : No
    Forced                      : No

    Text #3
    ID                          : 6
    Format                      : UTF-8
    Codec ID                    : S_TEXT/UTF8
    Codec ID/Info               : UTF-8 Plain Text
    Duration                    : 57 min 23 s
    Bit rate                    : 17 b/s
    Count of elements           : 232
    Stream size                 : 7.30 KiB (0%)
    Title                       : Sub_Forzados
    Language                    : Spanish
    Default                     : Yes
    Forced                      : No

    Text #4
    ID                          : 7
    Format                      : UTF-8
    Codec ID                    : S_TEXT/UTF8
    Codec ID/Info               : UTF-8 Plain Text
    Duration                    : 2 h 4 min
    Bit rate                    : 36 b/s
    Count of elements           : 1124
    Stream size                 : 33.1 KiB (0%)
    Title                       : Sub_Esp
    Language                    : Spanish
    Default                     : No
    Forced                      : No

    Menu
    00:00:00.000                : en:Chapter 1
    00:10:00.725                : en:Chapter 2
    00:17:00.936                : en:Chapter 3
    00:24:18.415                : en:Chapter 4
    00:30:14.312                : en:Chapter 5
    00:33:54.240                : en:Chapter 6
    00:42:40.307                : en:Chapter 7
    00:48:07.217                : en:Chapter 8
    00:55:28.450                : en:Chapter 9
    01:03:51.786                : en:Chapter 10
    01:08:38.489                : en:Chapter 11
    01:28:29.303                : en:Chapter 12
    01:36:56.060                : en:Chapter 13
    01:47:43.498                : en:Chapter 14
    01:53:15.788                : en:Chapter 15
    02:01:08.052                : en:Chapter 16

  • Peso: 32.6 GiB

Sinopsis

Descargar El perfecto Asesino (1994) International Cut 4K UHD HDR Latino. Stan es un corrupto agente de la DEA cuya codicia le lleva a cometer asesinatos en las calles de Nueva York. El mortal juego del gato y el ratón empieza cuando se cruza en su camino un solitario hombre, llamado León. León es asesino a sueldo, un personaje indestructible e indocumentado, que sólo bebe leche y se ocupa de sus plantas. En medio se encuentra una huerfanita de 12 años, que no puede olvidar al hombre que asesinó a su familia. Ella acabará convirtiéndose en su perdición.

Audio Español Editado con partes en Ingles AC3 2.0 – Ingles AC3 5.1 Bluray
Creditos Audio Latino: Uziel (Thanks!!) [Y Mejorado Por Mi 🙂 ]

Ficha técnica

Video trailer de la película

Enlaces de descarga

Rip de Bluray

Descargar El perfecto Asesino (1994) International Cut 4K UHD HDR Latino




Aportes de DPeliculasHDmega la pass es:dpeliculashdmega.org Aportes de CinemaniaHD la pass es:cinemaniahdd.com
Guardado en : 4K HDR , 4K UHD , Acción , Crimen , Drama

Películas relacionadas

  • La Chica Del Tren (2016) 1080p Latino

    La Chica Del Tren (2016) 1080p Latino

    2016
    La Chica Del Tren (2016) 1080p Latino

    0.0 1h 52m 2016

    Descargar La Chica Del Tren (2016) 1080p Latino. Rachel (Emily Blunt) es una mujer devastada por su reciente...

    Director: Tate Taylor

    Género: Crimen

    Actores: Tim Wiencis

  • La Chica Del Tren (2016) Full HD 1080p Latino

    La Chica Del Tren (2016) Full HD 1080p Latino

    2016
    La Chica Del Tren (2016) Full HD 1080p Latino

    4.5 2h 0m 2016

    Descargar La Chica Del Tren (2016) Full HD 1080p Latino. Rachel (Emily Blunt) es una mujer devastada...

    Director: Tate Taylor

    Género: Actualizadas

    Actores: Tod Rainey

  • La Chica Del Tren (2016) REMUX 1080p Latino

    La Chica Del Tren (2016) REMUX 1080p Latino

    2016
    La Chica Del Tren (2016) REMUX 1080p Latino

    5.0 1h 52m 2016

    Descargar La Chica Del Tren (2016) REMUX 1080p Latino. Rachel (Emily Blunt) es una mujer devastada por...

    Director: Tate Taylor

    Género: Crimen

    Actores: Tod Rainey

  • La Chica Del Tren (2016) 4K UHD HDR Latino

    La Chica Del Tren (2016) 4K UHD HDR Latino

    2016
    La Chica Del Tren (2016) 4K UHD HDR Latino

    0.0 1h 52m 2016

    Descargar La Chica Del Tren (2016) 4K UHD HDR Latino. Rachel (Emily Blunt) es una mujer devastada por...

    Director: Tate Taylor

    Género: 4K HDR

    Actores: Tim Wiencis

Comentarios 2
  • DIEGO VARGAS - 24 noviembre, 2020

    Es la versión extendida? Gracias