Lego DC Comics Super Heroes: The Flash (2018) WEB-DL 1080p Latino

1.562 vistas
1 estrella2 estrellas3 estrellas4 estrellas5 estrellas (Ninguna valoración todavía)
Cargando…

Información de Lego DC Comics Super Heroes: The Flash (2018) WEB-DL 1080p Latino

Datos de la película

  • Calidad: WEBDL
  • Audio: Español Latino AC3 2.0 iTunes - Ingles AC3 5.1 iTunes
  • Subtitulos: Español Latino SRT- FORZADOS SRT
  • Resolución: 1912X1072p
  • Formato: MKV
  • Codec: H.264
  • Encoder: Dracarys
  • Mediainfo: Clic para Mostrar Datos Ver
  • Format                                   : Matroska
    Format version                           : Version 4 / Version 2
    File size                                : 3.14 GiB
    Duration                                 : 1 h 18 min
    Overall bit rate                         : 5 730 kb/s
    Movie name                               : CinemaniaHDD.com
    Encoded date                             : UTC 2018-02-13 04:32:42
    Writing application                      : mkvmerge v15.0.0 ('Duel with the Devil') 64-bit
    Writing library                          : libebml v1.3.5 + libmatroska v1.4.5

    Video
    ID                                       : 1
    Format                                   : AVC
    Format/Info                              : Advanced Video Codec
    Format profile                           : [email protected]
    Format settings                          : CABAC / 4 Ref Frames
    Format settings, CABAC                   : Yes
    Format settings, RefFrames               : 4 frames
    Codec ID                                 : V_MPEG4/ISO/AVC
    Duration                                 : 1 h 18 min
    Bit rate                                 : 5 088 kb/s
    Width                                    : 1 912 pixels
    Height                                   : 1 072 pixels
    Display aspect ratio                     : 16:9
    Frame rate mode                          : Constant
    Frame rate                               : 23.976 (23976/1000) FPS
    Color space                              : YUV
    Chroma subsampling                       : 4:2:0
    Bit depth                                : 8 bits
    Scan type                                : Progressive
    Bits/(Pixel*Frame)                       : 0.104
    Stream size                              : 2.79 GiB (89%)
    Title                                    : Lego DC Comics Super Heroes: The Flash (2018) WEB-DL 1080p Latino
    Language                                 : English
    Default                                  : Yes
    Forced                                   : No
    Color range                              : Limited
    Color primaries                          : BT.709
    Transfer characteristics                 : BT.709
    Matrix coefficients                      : BT.709

    Audio #1
    ID                                       : 2
    Format                                   : AC-3
    Format/Info                              : Audio Coding 3
    Format settings, Endianness              : Big
    Codec ID                                 : A_AC3
    Duration                                 : 1 h 18 min
    Bit rate mode                            : Constant
    Bit rate                                 : 256 kb/s
    Channel(s)                               : 2 channels
    Channel positions                        : Front: L R
    Sampling rate                            : 48.0 kHz
    Frame rate                               : 31.250 FPS (1536 SPF)
    Bit depth                                : 16 bits
    Compression mode                         : Lossy
    Stream size                              : 144 MiB (4%)
    Language                                 : Spanish
    Service kind                             : Complete Main
    Default                                  : Yes
    Forced                                   : Yes

    Audio #2
    ID                                       : 3
    Format                                   : AC-3
    Format/Info                              : Audio Coding 3
    Format settings, Endianness              : Big
    Codec ID                                 : A_AC3
    Duration                                 : 1 h 18 min
    Bit rate mode                            : Constant
    Bit rate                                 : 384 kb/s
    Channel(s)                               : 6 channels
    Channel positions                        : Front: L C R, Side: L R, LFE
    Sampling rate                            : 48.0 kHz
    Frame rate                               : 31.250 FPS (1536 SPF)
    Bit depth                                : 16 bits
    Compression mode                         : Lossy
    Stream size                              : 215 MiB (7%)
    Language                                 : English
    Service kind                             : Complete Main
    Default                                  : No
    Forced                                   : No

    Text #1
    ID                                       : 4
    Format                                   : UTF-8
    Codec ID                                 : S_TEXT/UTF8
    Codec ID/Info                            : UTF-8 Plain Text
    Duration                                 : 1 h 14 min
    Bit rate                                 : 0 b/s
    Count of elements                        : 20
    Stream size                              : 388 Bytes (0%)
    Title                                    : Forzados
    Language                                 : Spanish
    Default                                  : Yes
    Forced                                   : Yes

    Text #2
    ID                                       : 5
    Format                                   : UTF-8
    Codec ID                                 : S_TEXT/UTF8
    Codec ID/Info                            : UTF-8 Plain Text
    Duration                                 : 1 h 15 min
    Bit rate                                 : 79 b/s
    Count of elements                        : 1232
    Stream size                              : 43.9 KiB (0%)
    Language                                 : Spanish
    Default                                  : No
    Forced                                   : No

    Menu
    00:00:00.000                             : en:1
    00:10:31.000                             : en:2
    00:20:56.000                             : en:3
    00:34:27.000                             : en:4
    00:44:50.000                             : en:5
    00:51:53.000                             : en:6
    01:00:27.000                             : en:7
    01:07:35.000                             : en:8
    01:15:24.000                             : en:9

  • Peso: 3.14 GiB

Sinopsis

Flash está condenado a vivir el mismo día una y otra vez, pero teniendo cada unas de las repeticiones una variación respecto al anterior, como puede ser la pérdida de los poderes o incluso su despido de la Liga de la justicia. Por lo tanto el personaje estará obligado a encontrar un modo para restaurar la normalidad y así salvar tanto a él mismo como al propio mundo.

Ficha técnica

  • Titulo original: Lego DC Comics Super Heroes: The Flash
  • Fecha de lanzamiento: --2018/02/13 (United States of America)
  • Director: Ethan Spaulding
  • Género: Aventura, Comedia
  • Puntuación: 0.0 0 votos
  • Duración:
    1 h 18 min

Video trailer de la película

Enlaces de descarga

Rip de Bluray

Descargar Lego DC Comics Super Heroes: The Flash (2018) WEB-DL 1080p Latino




Aportes de DPeliculasHDmega la pass es:dpeliculashdmega.org Aportes de CinemaniaHD la pass es:cinemaniahdd.com
Guardado en : Aventura , Comedia

Películas relacionadas

  • El secreto de mi éxito (1987) REMUX 1080p Latino

    1987
    El secreto de mi éxito (1987) REMUX 1080p Latino

    0.0 1h 40m 1987

    Brantley Foster, un educado chico de Arkansas que acaba de licenciarse, ha soñado siempre con triunfar...

    Director: Herbert Ross

    Género: Comedia

    Actores: Richard Jordan

  • Samantha! (2019) Temporada 1 y 2 NF 1080p Latino

    2018
    Samantha! (2019) Temporada 1 y 2 NF 1080p Latino

    0.0 0h 28m 2018

    Samantha, una estrella infantil en la década de los 80, se aferra a los límites de la celebridad con...

    Director: Felipe Braga

    Género: Comedia

    Actores: Sidney Alexandre

  • Someone Great (2019) NF 1080p Latino

    2019
    Someone Great (2019) NF 1080p Latino

    0.0 1h 32m 2019

    Para Makani Young, mudarse a Nebraska desde Hawaii, resultó todo un choque cultural. Todavía adaptándose...

    Director: Jennifer Kaytin Robinson

    Género: Comedia

    Actores: Thomas Kopache

Comentarios 2
  • M.Torres - 16 febrero, 2018

    LOS ENLACES SE CALLERON

    • Dracarys - 22 febrero, 2018

      para descargar de mega usar gestor de descarga