Lego DC Comics Super Heroes Aquaman Rage of Atlantis (2018) 1080p Latino

835 vistas
1 estrella2 estrellas3 estrellas4 estrellas5 estrellas (1 votos, promedio: 5,00 de 5)
Cargando…

Información de Lego DC Comics Super Heroes Aquaman Rage of Atlantis (2018) 1080p Latino

Datos de la película

  • Calidad: 1080p
  • Audio: Español Latino AC3 5.1 BLURAY - Ingles AC3 5.1 BLURAY
  • Subtitulos: Español Latino SRT
  • Resolución: 1920x1080p
  • Formato: MKV
  • Codec: H.264
  • Encoder: Dracarys
  • Mediainfo: Clic para Mostrar Datos Ver
  • Format                                   : Matroska
    Format version                           : Version 4 / Version 2
    File size                                : 2.43 GiB
    Duration                                 : 1 h 16 min
    Overall bit rate                         : 4 529 kb/s
    Movie name                               : CinemaniaHDD.net
    Encoded date                             : UTC 2018-07-26 23:52:12 / UTC 2018-07-25T19:23:43Z
    Writing application                      : mkvmerge v15.0.0 ('Duel with the Devil') 64-bit
    Writing library                          : libebml v1.3.5 + libmatroska v1.4.5 / Lavf57.7.2

    Video
    ID                                       : 1
    Format                                   : AVC
    Format/Info                              : Advanced Video Codec
    Format profile                           : High@L4.1
    Format settings                          : CABAC / 4 Ref Frames
    Format settings, CABAC                   : Yes
    Format settings, RefFrames               : 4 frames
    Codec ID                                 : V_MPEG4/ISO/AVC
    Duration                                 : 1 h 16 min
    Bit rate                                 : 3 500 kb/s
    Width                                    : 1 920 pixels
    Height                                   : 1 080 pixels
    Display aspect ratio                     : 16:9
    Frame rate mode                          : Constant
    Frame rate                               : 23.976 (24000/1001) FPS
    Color space                              : YUV
    Chroma subsampling                       : 4:2:0
    Bit depth                                : 8 bits
    Scan type                                : Progressive
    Bits/(Pixel*Frame)                       : 0.070
    Stream size                              : 1.83 GiB (75%)
    Title                                    : Lego DC Comics Super Heroes Aquaman Rage of Atlantis (2018) 1080p Latino
    Writing library                          : x264 core 148 r2708 86b7198
    Encoding settings                        : cabac=1 / ref=4 / deblock=1:0:0 / analyse=0x3:0x113 / me=umh / subme=8 / psy=1 / psy_rd=1.00:0.00 / mixed_ref=1 / me_range=16 / chroma_me=1 / trellis=1 / 8x8dct=1 / cqm=0 / deadzone=21,11 / fast_pskip=1 / chroma_qp_offset=-2 / threads=34 / lookahead_threads=5 / sliced_threads=0 / nr=0 / decimate=1 / interlaced=0 / bluray_compat=0 / constrained_intra=0 / bframes=3 / b_pyramid=2 / b_adapt=2 / b_bias=0 / direct=3 / weightb=1 / open_gop=0 / weightp=2 / keyint=240 / keyint_min=24 / scenecut=40 / intra_refresh=0 / rc_lookahead=50 / rc=abr / mbtree=1 / bitrate=3500 / ratetol=1.0 / qcomp=0.60 / qpmin=0 / qpmax=69 / qpstep=4 / vbv_maxrate=62500 / vbv_bufsize=78125 / nal_hrd=none / filler=0 / ip_ratio=1.40 / aq=1:1.00
    Language                                 : English
    Default                                  : Yes
    Forced                                   : No
    Color range                              : Limited
    Color primaries                          : BT.709
    Transfer characteristics                 : BT.709
    Matrix coefficients                      : BT.709
    Statistics Tags Issue                    : mkvmerge v15.0.0 ('Duel with the Devil') 64-bit 2018-07-26 23:52:12 / mkvmerge v15.0.0 ('Duel with the Devil') 64-bit 2018-07-26 23:52:12 / UTC 2018-07-25T19:23:43Z
    FromStats_BitRate                        : 3503256
    FromStats_Duration                       : 01:16:50.481000000
    FromStats_FrameCount                     : 110541
    FromStats_StreamSize                     : 2018962075

    Audio #1
    ID                                       : 2
    Format                                   : AC-3
    Format/Info                              : Audio Coding 3
    Format settings, Endianness              : Big
    Codec ID                                 : A_AC3
    Duration                                 : 1 h 16 min
    Bit rate mode                            : Constant
    Bit rate                                 : 384 kb/s
    Channel(s)                               : 6 channels
    Channel positions                        : Front: L C R, Side: L R, LFE
    Sampling rate                            : 48.0 kHz
    Frame rate                               : 31.250 FPS (1536 SPF)
    Bit depth                                : 16 bits
    Compression mode                         : Lossy
    Delay relative to video                  : -5 ms
    Stream size                              : 211 MiB (8%)
    Language                                 : Spanish
    Service kind                             : Complete Main
    Default                                  : Yes
    Forced                                   : No
    Statistics Tags Issue                    : mkvmerge v15.0.0 ('Duel with the Devil') 64-bit 2018-07-26 23:52:12 / mkvmerge v15.0.0 ('Duel with the Devil') 64-bit 2018-07-26 23:52:12 / UTC 2018-07-25T19:23:43Z
    FromStats_BitRate                        : 384000
    FromStats_Duration                       : 01:16:50.432000000
    FromStats_FrameCount                     : 144076
    FromStats_StreamSize                     : 221300736

    Audio #2
    ID                                       : 3
    Format                                   : AC-3
    Format/Info                              : Audio Coding 3
    Format settings, Endianness              : Big
    Codec ID                                 : A_AC3
    Duration                                 : 1 h 16 min
    Bit rate mode                            : Constant
    Bit rate                                 : 640 kb/s
    Channel(s)                               : 6 channels
    Channel positions                        : Front: L C R, Side: L R, LFE
    Sampling rate                            : 48.0 kHz
    Frame rate                               : 31.250 FPS (1536 SPF)
    Bit depth                                : 16 bits
    Compression mode                         : Lossy
    Delay relative to video                  : -5 ms
    Stream size                              : 352 MiB (14%)
    Language                                 : English
    Service kind                             : Complete Main
    Default                                  : No
    Forced                                   : No
    Statistics Tags Issue                    : mkvmerge v15.0.0 ('Duel with the Devil') 64-bit 2018-07-26 23:52:12 / mkvmerge v15.0.0 ('Duel with the Devil') 64-bit 2018-07-26 23:52:12 / UTC 2018-07-25T19:23:43Z
    FromStats_BitRate                        : 640000
    FromStats_Duration                       : 01:16:50.464000000
    FromStats_FrameCount                     : 144077
    FromStats_StreamSize                     : 368837120

    Text
    ID                                       : 4
    Format                                   : UTF-8
    Codec ID                                 : S_TEXT/UTF8
    Codec ID/Info                            : UTF-8 Plain Text
    Language                                 : Spanish
    Default                                  : No
    Forced                                   : No
    Statistics Tags Issue                    : mkvmerge v15.0.0 ('Duel with the Devil') 64-bit 2018-07-26 23:52:12 / mkvmerge v15.0.0 ('Duel with the Devil') 64-bit 2018-07-26 23:52:12 / UTC 2018-07-25T19:23:43Z
    FromStats_BitRate                        : 78
    FromStats_Duration                       : 01:13:20.592000000
    FromStats_FrameCount                     : 1026
    FromStats_StreamSize                     : 43263

    Menu
    00:00:00.000                             : :00:00:00.000
    00:13:36.733                             : :00:13:36.733
    00:24:00.439                             : :00:24:00.439
    00:32:06.967                             : :00:32:06.967
    00:41:26.859                             : :00:41:26.859
    00:53:07.810                             : :00:53:07.810
    01:04:13.391                             : :01:04:13.391
    01:13:46.505                             : :01:13:46.422

  • Peso: 2.43 GiB

Sinopsis

Aquaman debe luchar contra los enemigos en el aire, en tierra y en las profundidades de los Siete Mares, junto con la ayuda de la Liga de la Justicia.

Ficha técnica

  • Titulo original: LEGO DC Super Heroes - Aquaman: Rage Of Atlantis
  • Fecha de lanzamiento: 23-07-2018 (United States of America)
  • Director: Matt Peters
  • Género: Acción, Animación, Familia
  • Puntuación: 5.0 1 votos
  • Duración:
    1 h 16 min

Video trailer de la película

Enlaces de descarga

Rip de Bluray

Descargar Lego DC Comics Super Heroes Aquaman Rage of Atlantis (2018) 1080p Latino




Aportes de DPeliculasHDmega la pass es:dpeliculashdmega.org Aportes de CinemaniaHD la pass es:cinemaniahdd.com
Guardado en : Acción , Animación , Familia

Películas relacionadas

  • Mision: Imposible 2 (2000) Full 1080p Latino

    2000
    Mision: Imposible 2 (2000) Full 1080p Latino

    3.0 2h 3m 2000

    Descargar Mision: Imposible 2 (2000) Full 1080p Latino, Mega, Google Drive. El agente especial Ethan...

    Director: William H. Burton Jr.

    Género: Acción

    Actores: William Mapother

  • Mision: Imposible 2 (2000) 1080p Latino

    2000
    Mision: Imposible 2 (2000) 1080p Latino

    1.0 2h 3m 2000

    Descargar Mision: Imposible 2 (2000) 1080p Latino, Mega, Google Drive. El agente especial Ethan Hunt...

    Director: William H. Burton Jr.

    Género: Acción

    Actores: William Mapother

  • Mision: Imposible (1996) Full 1080p Latino

    1996
    Mision: Imposible (1996) Full 1080p Latino

    3.7 1h 50m 1996

    Mission: Impossible (1996) Full 1080p Latino, Mega, Google Drive. Ethan Hunt es un superespía capaz...

    Director: Nick Moore

    Género: Acción

    Actores: Ving Rhames

  • Mision: Imposible (1996) 1080p Latino

    1996
    Mision: Imposible (1996) 1080p Latino

    1.0 1h 50m 1996

    Mission: Impossible (1996) 1080p Latino, Mega, Google Drive. Ethan Hunt es un superespía capaz de resolver...

    Director: Nick Moore

    Género: Acción

    Actores: Ving Rhames

  • Los increíbles 2 (2018) Full 1080p Latino

    2018
    Los increíbles 2 (2018) Full 1080p Latino

    4.4 1h 58m 2018

    Helen tiene que liderar una campaña para que los superhéroes regresen, mientras Bob vive su vida "normal"...

    Director: Seong-Young Kim

    Género: Acción

    Actores: Usher

Comentarios 0