Legión Temporada 1 y 2 NF 1080p Latino

650 vistas
1 estrella2 estrellas3 estrellas4 estrellas5 estrellas (3 votos, promedio: 5,00 de 5)
Cargando…

Información de Legión Temporada 1 y 2 NF 1080p Latino

Datos de la película

  • Calidad: WEBDL
  • Audio: Español Latino E-AC3 2.0 Netflix - Ingles AC3 5.1 Netflix
  • Subtitulos: Español Latino SRT- FORZADOS SRT
  • Resolución: 1920x1080
  • Formato: MKV
  • Codec: H.264
  • Encoder: Chesse92
  • Mediainfo: Clic para Mostrar Datos Ver
  • Legion S01E01.mkv
    Format                      : Matroska
    Format version              : Version 4
    File size                   : 3.63 GiB
    Duration                    : 1 h 8 min
    Overall bit rate mode       : Variable
    Overall bit rate            : 7 648 kb/s
    Movie name                  : Legion S01E01
    Encoded date                : UTC 2019-04-04 15:47:13 / UTC 2017-12-20 20:42:25
    Writing application         : mkvmerge v11.0.0 ('Alive') 64bit
    Writing library             : libebml v1.3.4 + libmatroska v1.4.5 / Lavf58.0.0

    Video
    ID                          : 1
    Format                      : AVC
    Format/Info                 : Advanced Video Codec
    Format profile              : [email protected]
    Format settings             : CABAC / 4 Ref Frames
    Format settings, CABAC      : Yes
    Format settings, ReFrames   : 4 frames
    Codec ID                    : V_MPEG4/ISO/AVC
    Duration                    : 1 h 8 min
    Bit rate mode               : Variable
    Bit rate                    : 6 983 kb/s
    Maximum bit rate            : 20.0 Mb/s
    Width                       : 1 920 pixels
    Height                      : 1 080 pixels
    Display aspect ratio        : 16:9
    Frame rate mode             : Constant
    Frame rate                  : 23.976 (24000/1001) FPS
    Color space                 : YUV
    Chroma subsampling          : 4:2:0
    Bit depth                   : 8 bits
    Scan type                   : Progressive
    Bits/(Pixel*Frame)          : 0.140
    Stream size                 : 3.32 GiB (91%)
    Title                       : CinemaniaHDD
    Writing library             : x264 core 148 r2715 7e75228
    Encoding settings           : cabac=1 / ref=4 / deblock=1:0:0 / analyse=0x3:0x111 / me=umh / subme=10 / psy=1 / psy_rd=1.00:0.00 / mixed_ref=1 / me_range=120 / chroma_me=1 / trellis=2 / 8x8dct=1 / cqm=0 / deadzone=21,11 / fast_pskip=1 / chroma_qp_offset=-2 / threads=8 / lookahead_threads=2 / sliced_threads=0 / nr=0 / decimate=1 / interlaced=0 / bluray_compat=0 / stitchable=1 / constrained_intra=0 / bframes=16 / b_pyramid=2 / b_adapt=2 / b_bias=0 / direct=3 / weightb=1 / open_gop=0 / weightp=2 / keyint=240 / keyint_min=121 / scenecut=0 / intra_refresh=0 / rc_lookahead=240 / rc=crf / mbtree=1 / crf=20.0 / qcomp=0.50 / qpmin=6 / qpmax=51 / qpstep=4 / vbv_maxrate=20000 / vbv_bufsize=25000 / crf_max=0.0 / nal_hrd=vbr / filler=0 / ip_ratio=1.40 / aq=1:0.80
    Default                     : Yes
    Forced                      : No
    Statistics Tags Issue       : mkvmerge v11.0.0 ('Alive') 64bit 2019-04-04 15:47:13 / mkvmerge v11.0.0 ('Alive') 64bit 2019-04-04 15:47:13 / UTC 2017-12-20 20:42:25
    FromStats_BitRate           : 7133672
    FromStats_Duration          : 01:08:00.201000000
    FromStats_FrameCount        : 97827
    FromStats_StreamSize        : 3638352262

    Audio #1
    ID                          : 2
    Format                      : E-AC-3
    Format/Info                 : Enhanced AC-3
    Commercial name             : Dolby Digital Plus
    Codec ID                    : A_EAC3
    Duration                    : 1 h 8 min
    Bit rate mode               : Constant
    Bit rate                    : 128 kb/s
    Channel(s)                  : 2 channels
    Channel layout              : L R
    Sampling rate               : 48.0 kHz
    Frame rate                  : 31.250 FPS (1536 SPF)
    Compression mode            : Lossy
    Stream size                 : 62.3 MiB (2%)
    Title                       : Español latino [CinemaniaHDD]
    Language                    : Spanish
    Service kind                : Complete Main
    Default                     : Yes
    Forced                      : No
    Encoded date                : UTC 2017-12-20 20:41:51
    Statistics Tags Issue       : mkvmerge v11.0.0 ('Alive') 64bit 2019-04-04 15:47:13 / mkvmerge v11.0.0 ('Alive') 64bit 2019-04-04 15:47:13 / UTC 2017-12-20 20:42:25
    FromStats_BitRate           : 128000
    FromStats_Duration          : 01:08:00.288000000
    FromStats_FrameCount        : 127509
    FromStats_StreamSize        : 65284608

    Audio #2
    ID                          : 3
    Format                      : AC-3
    Format/Info                 : Audio Coding 3
    Commercial name             : Dolby Digital
    Codec ID                    : A_AC3
    Duration                    : 1 h 8 min
    Bit rate mode               : Constant
    Bit rate                    : 384 kb/s
    Channel(s)                  : 6 channels
    Channel layout              : L R C LFE Ls Rs
    Sampling rate               : 48.0 kHz
    Frame rate                  : 31.250 FPS (1536 SPF)
    Bit depth                   : 16 bits
    Compression mode            : Lossy
    Stream size                 : 187 MiB (5%)
    Title                       : Inglés [CinemaniaHDD]
    Language                    : English
    Service kind                : Complete Main
    Default                     : No
    Forced                      : No
    Encoded date                : UTC 2017-12-20 20:42:25
    Statistics Tags Issue       : mkvmerge v11.0.0 ('Alive') 64bit 2019-04-04 15:47:13 / mkvmerge v11.0.0 ('Alive') 64bit 2019-04-04 15:47:13 / UTC 2017-12-20 20:42:25
    FromStats_BitRate           : 384000
    FromStats_Duration          : 01:08:00.416000000
    FromStats_FrameCount        : 127513
    FromStats_StreamSize        : 195859968

    Text #1
    ID                          : 4
    Format                      : UTF-8
    Codec ID                    : S_TEXT/UTF8
    Codec ID/Info               : UTF-8 Plain Text
    Title                       : Forzados [CinemaniaHDD]
    Language                    : Spanish
    Default                     : Yes
    Forced                      : Yes
    Statistics Tags Issue       : mkvmerge v11.0.0 ('Alive') 64bit 2019-04-04 15:47:13 / mkvmerge v11.0.0 ('Alive') 64bit 2019-04-04 15:47:13 / UTC 2017-12-20 20:42:25
    FromStats_BitRate           : 0
    FromStats_Duration          : 01:02:56.875000000
    FromStats_FrameCount        : 2
    FromStats_StreamSize        : 60

    Text #2
    ID                          : 5
    Format                      : UTF-8
    Codec ID                    : S_TEXT/UTF8
    Codec ID/Info               : UTF-8 Plain Text
    Title                       : Español latino [CinemaniaHDD]
    Language                    : Spanish
    Default                     : No
    Forced                      : No
    Statistics Tags Issue       : mkvmerge v11.0.0 ('Alive') 64bit 2019-04-04 15:47:13 / mkvmerge v11.0.0 ('Alive') 64bit 2019-04-04 15:47:13 / UTC 2017-12-20 20:42:25
    FromStats_BitRate           : 37
    FromStats_Duration          : 01:06:16.101000000
    FromStats_FrameCount        : 674
    FromStats_StreamSize        : 18409

  • Peso: 30 GB Total

Sinopsis

David Haller, AKA Legión, es un joven con problemas que puede ser más que humano. Diagnosticado como esquizofrénico, David ha estado dentro y fuera de los hospitales psiquiátricos durante años. Pero después de un extraño encuentro con un compañero paciente, se enfrenta a la posibilidad de que las voces que escucha y las visiones que ve puedan ser reales.

Ficha técnica

Video trailer de la película

Enlaces de descarga

Rip de Bluray

Descargar Legión Temporada 1 y 2 NF 1080p Latino




Aportes de DPeliculasHDmega la pass es:dpeliculashdmega.org Aportes de CinemaniaHD la pass es:cinemaniahdd.com

Películas relacionadas

  • Game of Thrones (2019) Temporada 8 AMZN 1080p Latino

    2011
    Game of Thrones (2019) Temporada 8 AMZN 1080p Latino

    5.0 1h 0m 2011

    Siete familias nobles luchan por el control de la tierra mítica de Westeros. La fricción entre las...

    Director: David Benioff

    Género: Action & Adventure

    Actores: Sophie Turner

  • Samantha! (2019) Temporada 1 y 2 NF 1080p Latino

    2018
    Samantha! (2019) Temporada 1 y 2 NF 1080p Latino

    0.0 0h 28m 2018

    Samantha, una estrella infantil en la década de los 80, se aferra a los límites de la celebridad con...

    Director: Felipe Braga

    Género: Comedia

    Actores: Sidney Alexandre

  • Star Trek: Discovery (2019) Temporada 2 NF 1080p Latino

    2017
    Star Trek: Discovery (2019) Temporada 2 NF 1080p Latino

    3.7 0h 42m 2017

    La segunda temporada de la serie de televisión estadounidense Star Trek: Discovery se desarrolla aproximadamente...

    Director: Bryan Fuller

    Género: Sci-Fi & Fantasy

    Actores: Sonequa Martin-Green

  • Hanna (2019) Temporada 1 AMZN WEB-DL 1080p Latino

    2019
    Hanna (2019) Temporada 1 AMZN WEB-DL 1080p Latino

    0.0 0h 50m 2019

    Este thriller y el drama de la mayoría de edad sigue el viaje de una joven extraordinaria mientras evade...

    Director: David Farr

    Género: Action & Adventure

    Actores: Rhianne Barreto

  • Super Campones (2002) Temporada 1 NF 1080p Latino

    2018
    Super Campones (2002) Temporada 1 NF 1080p Latino

    5.0 0h 22m 2018

    La historia apasionada de un estudiante de escuela primaria cuyos pensamientos y sueños giran casi enteramente...

    Director: Toshiyuki Kato

    Género: Animación

    Actores: Yuuko Sanpei

Comentarios 2
  • juan jose - 05 abril, 2019

    hola, muchas gracias por tan buena serie, en los links de la Segunda temporada solo aparecen 9 links de 9 episodios, y la temporada tienes 10, falto un episodio, espero y puedan ponerlo, gracias.

    • dpelis - 10 abril, 2019

      agregados los dos restantes