×

¿Problemas para descargar con Mozilla, EDGE? Deshabilita la opción "Abrir vinculos en una pestaña nueva" tal como lo muestra ésta imagen.

Legion de Superheroes (2023) REMUX 1080p Latino

434 vistas

Información de Legion de Superheroes (2023) REMUX 1080p Latino

Datos de la película

  • Calidad: Full 1080p
  • Audio: Español Latino AC3 5.1 BLURAY - Ingles DTS 5.1 BLURAY
  • Subtitulos: Español Latino PGS - Ingles PGS
  • Resolución: 1920x1080p
  • Formato: MKV
  • Codec: H.264
  • Encoder: Melkor
  • Mediainfo: Clic para Mostrar Datos Ver
  • Legion de Superheroes (2023) REMUX 1080p Latino.mkv
    Format                      : Matroska
    Format version              : Version 4
    File size                   : 10.5 GiB
    Duration                    : 1 h 23 min
    Overall bit rate mode       : Variable
    Overall bit rate            : 18.0 Mb/s
    Movie name                  : Legion of Super-Heroes (2023) CinemaniaHDD.Net
    Encoded date                : UTC 2023-02-12 06:14:38
    Writing application         : mkvmerge v56.1.0 ('My Friend') 64-bit
    Writing library             : libebml v1.4.2 + libmatroska v1.6.4
    Attachments                 : CINEMANIAHD.png
    Site                        : CinemaniaHDD.Net
    Uploader                    : Melkor

    Video
    ID                          : 1
    ID in the original source m : 4113 (0x1011)
    Format                      : AVC
    Format/Info                 : Advanced Video Codec
    Format profile              : High@L4.1
    Format settings             : CABAC / 4 Ref Frames
    Format settings, CABAC      : Yes
    Format settings, Reference  : 4 frames
    Codec ID                    : V_MPEG4/ISO/AVC
    Duration                    : 1 h 23 min
    Bit rate mode               : Variable
    Bit rate                    : 15.2 Mb/s
    Maximum bit rate            : 39.0 Mb/s
    Width                       : 1 920 pixels
    Height                      : 1 080 pixels
    Display aspect ratio        : 16:9
    Frame rate mode             : Constant
    Frame rate                  : 23.976 (24000/1001) FPS
    Color space                 : YUV
    Chroma subsampling          : 4:2:0
    Bit depth                   : 8 bits
    Scan type                   : Progressive
    Bits/(Pixel*Frame)          : 0.306
    Stream size                 : 8.86 GiB (85%)
    Title                       : REMUX HD1080p [CinemaniaHDD]
    Default                     : Yes
    Forced                      : Yes
    Original source medium      : Blu-ray

    Audio #1
    ID                          : 2
    ID in the original source m : 4353 (0x1101)
    Format                      : AC-3
    Format/Info                 : Audio Coding 3
    Commercial name             : Dolby Digital
    Codec ID                    : A_AC3
    Duration                    : 1 h 23 min
    Bit rate mode               : Constant
    Bit rate                    : 640 kb/s
    Channel(s)                  : 6 channels
    Channel layout              : L R C LFE Ls Rs
    Sampling rate               : 48.0 kHz
    Frame rate                  : 31.250 FPS (1536 SPF)
    Compression mode            : Lossy
    Stream size                 : 382 MiB (4%)
    Title                       : Español Latino [CinemaniaHDD]
    Language                    : Spanish
    Service kind                : Complete Main
    Default                     : Yes
    Forced                      : Yes
    Original source medium      : Blu-ray

    Audio #2
    ID                          : 3
    ID in the original source m : 4352 (0x1100)
    Format                      : DTS XLL
    Format/Info                 : Digital Theater Systems
    Commercial name             : DTS-HD Master Audio
    Codec ID                    : A_DTS
    Duration                    : 1 h 23 min
    Bit rate mode               : Variable
    Bit rate                    : 2 087 kb/s
    Channel(s)                  : 6 channels
    Channel layout              : C L R Ls Rs LFE
    Sampling rate               : 48.0 kHz
    Frame rate                  : 93.750 FPS (512 SPF)
    Bit depth                   : 24 bits
    Compression mode            : Lossless
    Stream size                 : 1.22 GiB (12%)
    Title                       : Ingles [CinemaniaHDD]
    Language                    : English
    Default                     : No
    Forced                      : No
    Original source medium      : Blu-ray

    Text #1
    ID                          : 4
    ID in the original source m : 4610 (0x1202)
    Format                      : PGS
    Muxing mode                 : zlib
    Codec ID                    : S_HDMV/PGS
    Codec ID/Info               : Picture based subtitle format used on BDs/HD-DVDs
    Duration                    : 1 h 22 min
    Bit rate                    : 32.2 kb/s
    Count of elements           : 1852
    Stream size                 : 19.1 MiB (0%)
    Title                       : Español-PGS [CinemaniaHDD]
    Language                    : Spanish
    Default                     : No
    Forced                      : No
    Original source medium      : Blu-ray

    Text #2
    ID                          : 5
    ID in the original source m : 4608 (0x1200)
    Format                      : PGS
    Muxing mode                 : zlib
    Codec ID                    : S_HDMV/PGS
    Codec ID/Info               : Picture based subtitle format used on BDs/HD-DVDs
    Duration                    : 1 h 22 min
    Bit rate                    : 33.7 kb/s
    Count of elements           : 2170
    Stream size                 : 19.9 MiB (0%)
    Title                       : Ingles [CinemaniaHDD]
    Language                    : English
    Default                     : No
    Forced                      : No
    Original source medium      : Blu-ray

    Text #3
    ID                          : 6
    Format                      : UTF-8
    Codec ID                    : S_TEXT/UTF8
    Codec ID/Info               : UTF-8 Plain Text
    Duration                    : 44 s 417 ms
    Bit rate                    : 20 b/s
    Count of elements           : 2
    Stream size                 : 116 Bytes (0%)
    Title                       : Forzados-SRT [CinemaniaHDD]
    Language                    : Spanish
    Default                     : Yes
    Forced                      : Yes

    Text #4
    ID                          : 7
    Format                      : UTF-8
    Codec ID                    : S_TEXT/UTF8
    Codec ID/Info               : UTF-8 Plain Text
    Duration                    : 1 h 22 min
    Bit rate                    : 56 b/s
    Count of elements           : 934
    Stream size                 : 33.9 KiB (0%)
    Title                       : Español-SRT [CinemaniaHDD]
    Language                    : Spanish
    Default                     : No
    Forced                      : No

    Menu
    00:00:00.000                : Chapter 01
    00:08:10.823                : Chapter 02
    00:18:02.748                : Chapter 03
    00:27:38.948                : Chapter 04
    00:37:32.667                : Chapter 05
    00:47:26.677                : Chapter 06
    00:57:11.553                : Chapter 07
    01:06:45.876                : Chapter 08
    01:12:49.907                : Chapter 09
    01:19:09.578                : Chapter 10
    01:21:40.270                : Chapter 11

  • Peso: 10.5 GiB

Sinopsis

Descargar Legion de Superheroes (2023) REMUX 1080p Latino. Kara, devastada por la pérdida de Krypton, lucha por adaptarse a su nueva vida en la Tierra. Superman la asesora. Mientras tanto, debe enfrentarse a un grupo misterioso llamado Dark Circle que busca un arma poderosa guardada en la bóveda de la Academia.

Ficha técnica

Video trailer de la película

Enlaces de descarga

Rip de Bluray

Descargar Legion de Superheroes (2023) REMUX 1080p Latino




Aportes de DPeliculasHDmega la pass es:dpeliculashdmega.org Aportes de CinemaniaHD la pass es:cinemaniahdd.com Aportes recientes:cinemaniahdd.net

Películas relacionadas

descargar Legion de Superheroes (2023) REMUX 1080p Latino Full 1080p 1080p gratis, Legion de Superheroes (2023) REMUX 1080p Latino Full 1080p mega 1 link, Legion de Superheroes (2023) REMUX 1080p Latino Full 1080p pelicula completa, descargar Legion de Superheroes (2023) REMUX 1080p Latino Full 1080p gratis en mega.

Legion de Superheroes (2023) REMUX 1080p Latino pelicula full hd, Legion de Superheroes (2023) REMUX 1080p Latino mega latino, Legion de Superheroes (2023) REMUX 1080p Latino 4k latino, Legion de Superheroes (2023) REMUX 1080p Latino pelicula completa, Legion de Superheroes (2023) REMUX 1080p Latino descargar gratis, descargar Legion de Superheroes (2023) REMUX 1080p Latino pelicula latino, Legion de Superheroes (2023) REMUX 1080p Latino 1 link mega, Legion de Superheroes (2023) REMUX 1080p Latino 1 link google drive, Legion de Superheroes (2023) REMUX 1080p Latino hd 1080p latino.
Comentarios 0