×

¿Problemas para descargar con Mozilla, EDGE? Deshabilita la opción "Abrir vinculos en una pestaña nueva" tal como lo muestra ésta imagen.

Leyenda: La profesión de la violencia (2015) REMUX 1080p Latino

266 vistas

Información de Leyenda: La profesión de la violencia (2015) REMUX 1080p Latino

Datos de la película

  • Calidad: Full 1080p
  • Audio: Español Latino DTS 5.1 BLURAY - Ingles DTS-HD Master 7.1 BLURAY
  • Subtitulos: Español Latino PGS - Ingles PGS
  • Resolución: 1920x1080p
  • Formato: MKV
  • Codec: H.264
  • Encoder: CinefiloCool
  • Mediainfo: Clic para Mostrar Datos Ver
  • Leyenda (2015) REMUX 1080p Latino-CMHDD.mkv
    Format                      : Matroska
    Format version              : Version 4
    File size                   : 33.8 GiB
    Duration                    : 2 h 11 min
    Overall bit rate mode       : Variable
    Overall bit rate            : 36.7 Mb/s
    Movie name                  : Legend (2015) CinemaniaHDD.Net
    Encoded date                : UTC 2021-09-15 06:51:03
    Writing application         : mkvmerge v56.1.0 ('My Friend') 64-bit
    Writing library             : libebml v1.4.2 + libmatroska v1.6.4
    Attachments                 : CINEMANIAHD.png

    Video
    ID                          : 1
    ID in the original source m : 4113 (0x1011)
    Format                      : AVC
    Format/Info                 : Advanced Video Codec
    Format profile              : High@L4.1
    Format settings             : CABAC / 4 Ref Frames
    Format settings, CABAC      : Yes
    Format settings, Reference  : 4 frames
    Format settings, GOP        : M=3, N=12
    Codec ID                    : V_MPEG4/ISO/AVC
    Duration                    : 2 h 11 min
    Bit rate mode               : Variable
    Bit rate                    : 31.4 Mb/s
    Maximum bit rate            : 35.0 Mb/s
    Width                       : 1 920 pixels
    Height                      : 1 080 pixels
    Display aspect ratio        : 16:9
    Frame rate mode             : Constant
    Frame rate                  : 23.976 (24000/1001) FPS
    Color space                 : YUV
    Chroma subsampling          : 4:2:0
    Bit depth                   : 8 bits
    Scan type                   : Progressive
    Bits/(Pixel*Frame)          : 0.632
    Stream size                 : 28.9 GiB (85%)
    Title                       : REMUX HD1080p [CinemaniaHDD]
    Default                     : Yes
    Forced                      : Yes
    Original source medium      : Blu-ray

    Audio #1
    ID                          : 2
    ID in the original source m : 4353 (0x1101)
    Format                      : DTS
    Format/Info                 : Digital Theater Systems
    Codec ID                    : A_DTS
    Duration                    : 2 h 11 min
    Bit rate mode               : Constant
    Bit rate                    : 768 kb/s
    Channel(s)                  : 6 channels
    Channel layout              : C L R Ls Rs LFE
    Sampling rate               : 48.0 kHz
    Frame rate                  : 93.750 FPS (512 SPF)
    Bit depth                   : 24 bits
    Compression mode            : Lossy
    Stream size                 : 724 MiB (2%)
    Title                       : Español Latino [CinemaniaHDD]
    Language                    : Spanish
    Default                     : Yes
    Forced                      : Yes
    Original source medium      : Blu-ray

    Audio #2
    ID                          : 3
    ID in the original source m : 4352 (0x1100)
    Format                      : DTS XLL
    Format/Info                 : Digital Theater Systems
    Commercial name             : DTS-HD Master Audio
    Codec ID                    : A_DTS
    Duration                    : 2 h 11 min
    Bit rate mode               : Variable
    Bit rate                    : 4 541 kb/s
    Channel(s)                  : 8 channels
    Channel layout              : C L R LFE Lb Rb Lss Rss
    Sampling rate               : 48.0 kHz
    Frame rate                  : 93.750 FPS (512 SPF)
    Bit depth                   : 24 bits
    Compression mode            : Lossless
    Stream size                 : 4.18 GiB (12%)
    Title                       : Ingles [CinemaniaHDD]
    Language                    : English
    Default                     : No
    Forced                      : No
    Original source medium      : Blu-ray

    Text #1
    ID                          : 4
    ID in the original source m : 4611 (0x1203)
    Format                      : PGS
    Muxing mode                 : zlib
    Codec ID                    : S_HDMV/PGS
    Codec ID/Info               : Picture based subtitle format used on BDs/HD-DVDs
    Duration                    : 1 h 50 min
    Bit rate                    : 871 b/s
    Count of elements           : 87
    Stream size                 : 703 KiB (0%)
    Title                       : Forzados-PGS [CinemaniaHDD]
    Language                    : Spanish
    Default                     : No
    Forced                      : No
    Original source medium      : Blu-ray

    Text #2
    ID                          : 5
    ID in the original source m : 4609 (0x1201)
    Format                      : PGS
    Muxing mode                 : zlib
    Codec ID                    : S_HDMV/PGS
    Codec ID/Info               : Picture based subtitle format used on BDs/HD-DVDs
    Duration                    : 2 h 10 min
    Bit rate                    : 41.1 kb/s
    Count of elements           : 4353
    Stream size                 : 38.3 MiB (0%)
    Title                       : Español-PGS [CinemaniaHDD]
    Language                    : Spanish
    Default                     : No
    Forced                      : No
    Original source medium      : Blu-ray

    Text #3
    ID                          : 6
    ID in the original source m : 4608 (0x1200)
    Format                      : PGS
    Muxing mode                 : zlib
    Codec ID                    : S_HDMV/PGS
    Codec ID/Info               : Picture based subtitle format used on BDs/HD-DVDs
    Duration                    : 2 h 3 min
    Bit rate                    : 54.3 kb/s
    Count of elements           : 4739
    Stream size                 : 48.1 MiB (0%)
    Title                       : Ingles-PGS [CinemaniaHDD]
    Language                    : English
    Default                     : No
    Forced                      : No
    Original source medium      : Blu-ray

    Text #4
    ID                          : 7
    Format                      : UTF-8
    Codec ID                    : S_TEXT/UTF8
    Codec ID/Info               : UTF-8 Plain Text
    Duration                    : 1 h 36 min
    Bit rate                    : 1 b/s
    Count of elements           : 42
    Stream size                 : 953 Bytes (0%)
    Title                       : Forzados-SRT [CinemaniaHDD]
    Language                    : Spanish
    Default                     : Yes
    Forced                      : Yes

    Text #5
    ID                          : 8
    Format                      : UTF-8
    Codec ID                    : S_TEXT/UTF8
    Codec ID/Info               : UTF-8 Plain Text
    Duration                    : 2 h 4 min
    Bit rate                    : 69 b/s
    Count of elements           : 2174
    Stream size                 : 62.9 KiB (0%)
    Title                       : Español-SRT [CinemaniaHDD]
    Language                    : Spanish
    Default                     : No
    Forced                      : No

    Menu
    00:00:00.000                : Chapter 01
    00:05:57.815                : Chapter 02
    00:10:43.934                : Chapter 03
    00:17:43.937                : Chapter 04
    00:22:29.056                : Chapter 05
    00:27:54.255                : Chapter 06
    00:34:52.173                : Chapter 07
    00:43:46.915                : Chapter 08
    00:48:57.309                : Chapter 09
    00:58:19.329                : Chapter 10
    01:03:03.112                : Chapter 11
    01:10:51.872                : Chapter 12
    01:16:19.116                : Chapter 13
    01:21:55.035                : Chapter 14
    01:27:13.269                : Chapter 15
    01:32:49.230                : Chapter 16
    01:41:01.972                : Chapter 17
    01:48:09.316                : Chapter 18
    01:57:22.076                : Chapter 19
    02:05:05.664                : Chapter 20

  • Peso: 33.8 GiB

Sinopsis

Descargar Leyenda: La profesión de la violencia (2015) REMUX 1080p Latino. La verdadera historia del ascenso y caída de los gangsters más célebres de Londres, Reggie y Ronnie Kray, ambos interpretados por Tom Hardy. Juntos, los gemelos Kray, se apoderarán de la ciudad. Pero mientras su reino se expande, las luchas por el poder, la feroz locura y una mujer, pondrán en peligro su vínculo fraternal; un débil eslabón que podría causar que su imperio se derrumbe. ‘Legend’ es un thriller clásico que nos sumergirá en la secreta historia de la década de los 60 y los extraordinarios acontecimientos que aseguraron la infame carrera de los gemelos Kray.

Disponible Solo Para VIP!!! 😀

Ficha técnica

Video trailer de la película

Enlaces de descarga

Rip de Bluray

Descargar Leyenda: La profesión de la violencia (2015) REMUX 1080p Latino


Aportes de DPeliculasHDmega la pass es:dpeliculashdmega.org Aportes de CinemaniaHD la pass es:cinemaniahdd.com
Guardado en : Crimen , Remux , Suspenso

Películas relacionadas

descargar Leyenda: La profesión de la violencia (2015) REMUX 1080p Latino Full 1080p 1080p gratis, Leyenda: La profesión de la violencia (2015) REMUX 1080p Latino Full 1080p mega 1 link, Leyenda: La profesión de la violencia (2015) REMUX 1080p Latino Full 1080p pelicula completa, descargar Leyenda: La profesión de la violencia (2015) REMUX 1080p Latino Full 1080p gratis en mega.

Leyenda: La profesión de la violencia (2015) REMUX 1080p Latino pelicula full hd, Leyenda: La profesión de la violencia (2015) REMUX 1080p Latino mega latino, Leyenda: La profesión de la violencia (2015) REMUX 1080p Latino 4k latino, Leyenda: La profesión de la violencia (2015) REMUX 1080p Latino pelicula completa, Leyenda: La profesión de la violencia (2015) REMUX 1080p Latino descargar gratis, descargar Leyenda: La profesión de la violencia (2015) REMUX 1080p Latino pelicula latino, Leyenda: La profesión de la violencia (2015) REMUX 1080p Latino 1 link mega, Leyenda: La profesión de la violencia (2015) REMUX 1080p Latino 1 link google drive, Leyenda: La profesión de la violencia (2015) REMUX 1080p Latino hd 1080p latino.
Comentarios 0