×

¿Problemas para descargar con Mozilla, EDGE? Deshabilita la opción "Abrir vinculos en una pestaña nueva" tal como lo muestra ésta imagen.

Legacies (2021-2022) Cuarta Temporada HMAX WEB-DL 1080p Latino

1.466 vistas

Información de Legacies (2021-2022) Cuarta Temporada HMAX WEB-DL 1080p Latino

Datos de la película

  • Calidad:
  • Audio: Español Latino AC3 5.1 WEB-DL - Ingles AC3 5.1 WEB-DL
  • Subtitulos: Español Latino SRT- FORZADOS SRT
  • Resolución: 1920x1080
  • Formato: MKV
  • Codec: H.264
  • Encoder: cinemaniahdd
  • Mediainfo: Clic para Mostrar Datos Ver
  • Legacies T04E01 HMAX WEB-DL 1080p Latino [CNMNHDD].mkv
    Format                      : Matroska
    Format version              : Version 4
    File size                   : 2.63 GiB
    Duration                    : 41 min 45 s
    Overall bit rate mode       : Variable
    Overall bit rate            : 9 010 kb/s
    Movie name                  : Legacies T04E01 - CinemaniaHDD.Net
    Encoded date                : UTC 2021-11-19 01:11:52
    Writing application         : mkvmerge v58.0.0 ('Supper's Ready') 32-bit
    Writing library             : libebml v1.4.2 + libmatroska v1.6.4

    Video
    ID                          : 1
    Format                      : AVC
    Format/Info                 : Advanced Video Codec
    Format profile              : High@L4
    Format settings             : CABAC / 4 Ref Frames
    Format settings, CABAC      : Yes
    Format settings, Reference  : 4 frames
    Codec ID                    : V_MPEG4/ISO/AVC
    Duration                    : 41 min 45 s
    Bit rate mode               : Variable
    Bit rate                    : 8 250 kb/s
    Maximum bit rate            : 12.4 Mb/s
    Width                       : 1 920 pixels
    Height                      : 1 080 pixels
    Display aspect ratio        : 16:9
    Frame rate mode             : Constant
    Frame rate                  : 23.976 (24000/1001) FPS
    Color space                 : YUV
    Chroma subsampling          : 4:2:0
    Bit depth                   : 8 bits
    Scan type                   : Progressive
    Bits/(Pixel*Frame)          : 0.166
    Stream size                 : 2.40 GiB (91%)
    Title                       : CinemaniaHDD
    Writing library             : x264 core 157 r2965 861cec4
    Encoding settings           : cabac=1 / ref=4 / deblock=1:0:0 / analyse=0x3:0x113 / me=hex / subme=7 / psy=1 / psy_rd=1.00:0.00 / mixed_ref=1 / me_range=16 / chroma_me=1 / trellis=1 / 8x8dct=1 / cqm=0 / deadzone=21,11 / fast_pskip=1 / chroma_qp_offset=-2 / threads=34 / lookahead_threads=5 / sliced_threads=0 / nr=0 / decimate=1 / interlaced=0 / bluray_compat=0 / constrained_intra=0 / bframes=3 / b_pyramid=2 / b_adapt=1 / b_bias=0 / direct=1 / weightb=1 / open_gop=0 / weightp=2 / keyint=96 / keyint_min=96 / scenecut=40 / intra_refresh=0 / rc_lookahead=40 / rc=2pass / mbtree=1 / bitrate=8250 / ratetol=1.0 / qcomp=0.60 / qpmin=0 / qpmax=69 / qpstep=4 / cplxblur=20.0 / qblur=0.5 / vbv_maxrate=12375 / vbv_bufsize=6187 / nal_hrd=vbr / filler=0 / ip_ratio=1.40 / aq=1:1.00
    Default                     : Yes
    Forced                      : No
    Color range                 : Limited
    Color primaries             : BT.709
    Transfer characteristics    : BT.709
    Matrix coefficients         : BT.709

    Audio #1
    ID                          : 2
    Format                      : AC-3
    Format/Info                 : Audio Coding 3
    Commercial name             : Dolby Digital
    Codec ID                    : A_AC3
    Duration                    : 41 min 45 s
    Bit rate mode               : Constant
    Bit rate                    : 384 kb/s
    Channel(s)                  : 6 channels
    Channel layout              : L R C LFE Ls Rs
    Sampling rate               : 48.0 kHz
    Frame rate                  : 31.250 FPS (1536 SPF)
    Compression mode            : Lossy
    Stream size                 : 115 MiB (4%)
    Title                       : Español latino [CinemaniaHDD]
    Language                    : Spanish
    Service kind                : Complete Main
    Default                     : Yes
    Forced                      : No

    Audio #2
    ID                          : 3
    Format                      : AC-3
    Format/Info                 : Audio Coding 3
    Commercial name             : Dolby Digital
    Codec ID                    : A_AC3
    Duration                    : 41 min 45 s
    Bit rate mode               : Constant
    Bit rate                    : 384 kb/s
    Channel(s)                  : 6 channels
    Channel layout              : L R C LFE Ls Rs
    Sampling rate               : 48.0 kHz
    Frame rate                  : 31.250 FPS (1536 SPF)
    Compression mode            : Lossy
    Stream size                 : 115 MiB (4%)
    Title                       : Inglés [CinemaniaHDD]
    Language                    : English
    Service kind                : Complete Main
    Default                     : No
    Forced                      : No

    Text #1
    ID                          : 4
    Format                      : UTF-8
    Codec ID                    : S_TEXT/UTF8
    Codec ID/Info               : UTF-8 Plain Text
    Duration                    : 28 min 47 s
    Bit rate                    : 0 b/s
    Count of elements           : 4
    Stream size                 : 96.0 Bytes (0%)
    Title                       : Forzados [CinemaniaHDD]
    Language                    : Spanish
    Default                     : No
    Forced                      : Yes

    Text #2
    ID                          : 5
    Format                      : UTF-8
    Codec ID                    : S_TEXT/UTF8
    Codec ID/Info               : UTF-8 Plain Text
    Duration                    : 41 min 11 s
    Bit rate                    : 75 b/s
    Count of elements           : 630
    Stream size                 : 22.7 KiB (0%)
    Title                       : Español latino [CinemaniaHDD]
    Language                    : Spanish
    Default                     : No
    Forced                      : No

    Text #3
    ID                          : 6
    Format                      : UTF-8
    Codec ID                    : S_TEXT/UTF8
    Codec ID/Info               : UTF-8 Plain Text
    Duration                    : 41 min 22 s
    Bit rate                    : 80 b/s
    Count of elements           : 684
    Stream size                 : 24.3 KiB (0%)
    Title                       : Inglés [CinemaniaHDD]
    Language                    : English
    Default                     : No
    Forced                      : No

     

  • Peso: 2.63 GiB Aprox ---- 54 GiB in 20 Chapters.

Sinopsis

En un lugar donde jóvenes brujas, vampiros y hombres lobo son educados para ser lo mejor de sí mismos a pesar de sus peores impulsos, la hija de Klaus Mikaelson, Hope Mikaelson de 17 años, las gemelas de Alaric Saltzman, Lizzie y Josie Saltzman, entre otros de edad en héroes y villanos en la Escuela Salvatore para Jóvenes y Dotados.

Ficha técnica

Video trailer de la película

Enlaces de descarga

Rip de Bluray

Descargar Legacies (2021-2022) Cuarta Temporada HMAX WEB-DL 1080p Latino




Aportes de DPeliculasHDmega la pass es:dpeliculashdmega.org Aportes de CinemaniaHD la pass es:cinemaniahdd.com
Guardado en : Drama , HBOMAX , Sci-Fi & Fantasy , Series

Películas relacionadas

Legacies (2021-2022) Cuarta Temporada HMAX WEB-DL 1080p Latino pelicula full hd, Legacies (2021-2022) Cuarta Temporada HMAX WEB-DL 1080p Latino mega latino, Legacies (2021-2022) Cuarta Temporada HMAX WEB-DL 1080p Latino 4k latino, Legacies (2021-2022) Cuarta Temporada HMAX WEB-DL 1080p Latino pelicula completa, Legacies (2021-2022) Cuarta Temporada HMAX WEB-DL 1080p Latino descargar gratis, descargar Legacies (2021-2022) Cuarta Temporada HMAX WEB-DL 1080p Latino pelicula latino, Legacies (2021-2022) Cuarta Temporada HMAX WEB-DL 1080p Latino 1 link mega, Legacies (2021-2022) Cuarta Temporada HMAX WEB-DL 1080p Latino 1 link google drive, Legacies (2021-2022) Cuarta Temporada HMAX WEB-DL 1080p Latino hd 1080p latino.
Comentarios 4
  • Miguel - 23 diciembre, 2021

    El capitulo 3 en latino tiene totalmente desfasado el audio con respecto a las imágenes. ¿ Podrán resubirlo corregido ?. Gracias por vuestra amable respuesta.-

    • CinemaniaHDD - 24 diciembre, 2021

      Hola, gracias por el aviso, asi tal cual fue extraido de la plataforma revisare si ya lo corrigieron y sera resubido en la brevedad.

      • Miguel - 26 diciembre, 2021

        Muchas gracias por tu amable respuesta. Esperamos la resubida entonces. Una consulta más : El episodio 9 ,solo está subtitulado, ¿ Podrán ponerle el audio en latino ?

        • CinemaniaHDD - 26 diciembre, 2021

          se actualizara, cuando salga. por ahora esta asi en el streaming donde fue extraido