Leatherface (La Mascara del Terror) (2017) Full 1080p Subtitulada

2.019 vistas
1 estrella2 estrellas3 estrellas4 estrellas5 estrellas (2 votos, promedio: 4,50 de 5)
Cargando…

Información de Leatherface (La Mascara del Terror) (2017) Full 1080p Subtitulada

Datos de la película

  • Calidad: Full 1080p
  • Audio: Ingles DTS 5.1 BLURAY
  • Subtitulos: Español Latino PGS - Ingles PGS
  • Resolución: 1920X1080p
  • Formato: MKV
  • Codec: H.264
  • Encoder: Dracarys
  • Mediainfo: Clic para Mostrar Datos Ver
  • Format                                   : Matroska
    Format version                           : Version 4 / Version 2
    File size                                : 3.81 GiB
    Duration                                 : 1 h 27 min
    Overall bit rate                         : 6 215 kb/s
    Movie name                               : CinemaniaHDD.com
    Encoded date                             : UTC 2018-02-21 02:33:28 / UTC 2018-02-21T00:01:38Z
    Writing application                      : mkvmerge v15.0.0 ('Duel with the Devil') 64-bit
    Writing library                          : libebml v1.3.5 + libmatroska v1.4.5 / Lavf57.7.2

    Video
    ID                                       : 1
    Format                                   : AVC
    Format/Info                              : Advanced Video Codec
    Format profile                           : [email protected]
    Format settings                          : CABAC / 4 Ref Frames
    Format settings, CABAC                   : Yes
    Format settings, RefFrames               : 4 frames
    Codec ID                                 : V_MPEG4/ISO/AVC
    Duration                                 : 1 h 27 min
    Bit rate                                 : 4 582 kb/s
    Width                                    : 1 920 pixels
    Height                                   : 1 080 pixels
    Display aspect ratio                     : 16:9
    Frame rate mode                          : Constant
    Frame rate                               : 23.976 (24000/1001) FPS
    Color space                              : YUV
    Chroma subsampling                       : 4:2:0
    Bit depth                                : 8 bits
    Scan type                                : Progressive
    Bits/(Pixel*Frame)                       : 0.092
    Stream size                              : 2.81 GiB (74%)
    Title                                    : Leatherface (La Mascara del Terror) (2017) Full 1080p Subtitulada
    Writing library                          : x264 core 148 r2708 86b7198
    Encoding settings                        : cabac=1 / ref=4 / deblock=1:0:0 / analyse=0x3:0x133 / me=esa / subme=9 / psy=1 / psy_rd=1.00:0.00 / mixed_ref=1 / me_range=16 / chroma_me=1 / trellis=2 / 8x8dct=1 / cqm=0 / deadzone=21,11 / fast_pskip=1 / chroma_qp_offset=-2 / threads=34 / lookahead_threads=2 / sliced_threads=0 / nr=0 / decimate=1 / interlaced=0 / bluray_compat=0 / constrained_intra=0 / bframes=3 / b_pyramid=2 / b_adapt=2 / b_bias=0 / direct=3 / weightb=1 / open_gop=0 / weightp=2 / keyint=240 / keyint_min=24 / scenecut=40 / intra_refresh=0 / rc_lookahead=60 / rc=crf / mbtree=1 / crf=20.0 / qcomp=0.60 / qpmin=0 / qpmax=69 / qpstep=4 / vbv_maxrate=62500 / vbv_bufsize=78125 / crf_max=0.0 / nal_hrd=none / filler=0 / ip_ratio=1.40 / aq=1:1.00
    Language                                 : English
    Default                                  : Yes
    Forced                                   : No
    Color range                              : Limited
    Color primaries                          : BT.709
    Transfer characteristics                 : BT.709
    Matrix coefficients                      : BT.709
    Statistics Tags Issue                    : mkvmerge v15.0.0 ('Duel with the Devil') 64-bit 2018-02-21 02:33:28 / mkvmerge v15.0.0 ('Duel with the Devil') 64-bit 2018-02-21 02:33:28 / UTC 2018-02-21T00:01:38Z
    FromStats_BitRate                        : 4688224
    FromStats_Duration                       : 01:27:42.299000000
    FromStats_FrameCount                     : 126169
    FromStats_StreamSize                     : 3083854660

    Audio
    ID                                       : 2
    Format                                   : DTS
    Format/Info                              : Digital Theater Systems
    Mode                                     : 16
    Format settings, Endianness              : Big
    Codec ID                                 : A_DTS
    Duration                                 : 1 h 27 min
    Bit rate mode                            : Constant
    Bit rate                                 : 1 509 kb/s
    Channel(s)                               : 6 channels
    Channel positions                        : Front: L C R, Side: L R, LFE
    Sampling rate                            : 48.0 kHz
    Frame rate                               : 93.750 FPS (512 SPF)
    Bit depth                                : 24 bits
    Compression mode                         : Lossy
    Stream size                              : 947 MiB (24%)
    Language                                 : English
    Default                                  : Yes
    Forced                                   : No
    Statistics Tags Issue                    : mkvmerge v15.0.0 ('Duel with the Devil') 64-bit 2018-02-21 02:33:28 / mkvmerge v15.0.0 ('Duel with the Devil') 64-bit 2018-02-21 02:33:28 / UTC 2018-02-21T00:01:38Z
    FromStats_BitRate                        : 1508999
    FromStats_Duration                       : 01:27:42.315000000
    FromStats_FrameCount                     : 493342
    FromStats_StreamSize                     : 992604104

    Text #1
    ID                                       : 3
    Format                                   : UTF-8
    Codec ID                                 : S_TEXT/UTF8
    Codec ID/Info                            : UTF-8 Plain Text
    Title                                    : SRT
    Language                                 : Spanish
    Default                                  : Yes
    Forced                                   : Yes
    Statistics Tags Issue                    : mkvmerge v15.0.0 ('Duel with the Devil') 64-bit 2018-02-21 02:33:28 / mkvmerge v15.0.0 ('Duel with the Devil') 64-bit 2018-02-21 02:33:28 / UTC 2018-02-21T00:01:38Z
    FromStats_BitRate                        : 37
    FromStats_Duration                       : 01:24:33.823000000
    FromStats_FrameCount                     : 911
    FromStats_StreamSize                     : 23624

    Text #2
    ID                                       : 4
    Format                                   : PGS
    Muxing mode                              : zlib
    Codec ID                                 : S_HDMV/PGS
    Codec ID/Info                            : Picture based subtitle format used on BDs/HD-DVDs
    Title                                    : PGS
    Language                                 : Spanish
    Default                                  : No
    Forced                                   : No
    Statistics Tags Issue                    : mkvmerge v15.0.0 ('Duel with the Devil') 64-bit 2018-02-21 02:33:28 / mkvmerge v15.0.0 ('Duel with the Devil') 64-bit 2018-02-21 02:33:28 / UTC 2018-02-21T00:01:38Z
    FromStats_BitRate                        : 34253
    FromStats_Duration                       : 01:24:33.824000000
    FromStats_FrameCount                     : 1822
    FromStats_StreamSize                     : 21724268

    Menu
    00:00:00.000                             : :00:00:00.000
    00:04:27.476                             : :00:04:27.476
    00:09:32.238                             : :00:09:32.238
    00:15:17.917                             : :00:15:17.917
    00:21:39.840                             : :00:21:39.840
    00:26:36.595                             : :00:26:36.595
    00:31:09.493                             : :00:31:09.493
    00:35:54.235                             : :00:35:54.235
    00:41:50.591                             : :00:41:50.591
    00:48:27.738                             : :00:48:27.738
    00:53:34.753                             : :00:53:34.753
    00:57:36.620                             : :00:57:36.620
    01:05:27.173                             : :01:05:27.173
    01:09:48.601                             : :01:09:48.601
    01:14:59.078                             : :01:14:59.078
    01:18:26.660                             : :01:18:26.660

  • Peso: 3.81 GiB

Sinopsis

Precuela de la saga “La matanza de Texas”.La historia de los orígenes de Leatherface cuenta cómo de joven logra escapar de un psiquiátrico junto a cuatro compañeros. El grupo decide secuestrar en su huida a una joven enfermera, a la que llevarán en un infernal viaje en el que verán todo tipo de horrores mientras intentan escapar de Hal Hartman, un Ranger de Texas perturbado que busca venganza.

Ficha técnica

Video trailer de la película

Enlaces de descarga

Rip de Bluray

Descargar Leatherface (La Mascara del Terror) (2017) Full 1080p Subtitulada




Aportes de DPeliculasHDmega la pass es:dpeliculashdmega.org Aportes de CinemaniaHD la pass es:cinemaniahdd.com

Películas relacionadas

  • Arizona (2018) 1080p Latino

    2018
    Arizona (2018) 1080p Latino

    5.0 1h 25m 2018

    Ambientada en medio de la crisis de la vivienda de 2009, esta oscura y cómica historia sigue a Cassie...

    Director: Mara Herdmann

    Género: Comedia

    Actores: Vivian Nesbitt

  • Si La Colonia Hablara (2018) Full 1080p Subtitulado

    2018
    Si La Colonia Hablara (2018) Full 1080p Subtitulado

    5.0 1h 57m 2018

    Descargar Si La Colonia Hablara (2018) Full 1080p Subtitulado, Mega, Google Drive. Basada en la novela...

    Director: Barry Jenkins

    Género: Crimen

    Actores: Teyonah Parris

  • The Prodigy (2019) WEB-DL 1080p Latino

    2019
    The Prodigy (2019) WEB-DL 1080p Latino

    0.0 1h 32m 2019

    Una madre preocupada por el comportamiento perturbador de su hijo, está convencida de que algo sobrenatural...

    Director: Nicholas McCarthy

    Género: Suspenso

    Actores: Taylor Schilling

Comentarios 3
  • sebass - 22 febrero, 2018

    saldrá en latino luego amigos??

    • Dracarys - 22 febrero, 2018

      solo hay latino line a la espera de un mejor audio

      • sebass - 22 febrero, 2018

        ok! a esperar… gracias