×

¿Problemas para descargar con Mozilla, EDGE? Deshabilita la opción "Abrir vinculos en una pestaña nueva" tal como lo muestra ésta imagen.

Latte y la Piedra de Agua Mágica (2019) REMUX 1080p Latino

356 vistas

Información de Latte y la Piedra de Agua Mágica (2019) REMUX 1080p Latino

Datos de la película

  • Calidad: Full 1080p
  • Audio: Se especifica abajo de la Sinopsis
  • Subtitulos: Español Latino SRT- FORZADOS SRT
  • Resolución: 1920x1080p
  • Formato: MKV
  • Codec: H.264
  • Encoder: Melkor
  • Mediainfo: Clic para Mostrar Datos Ver
  • Latte Y La Piedra De Agua Magica (2019) REMUX 1080p Latino.mkv
    Format                      : Matroska
    Format version              : Version 4
    File size                   : 19.1 GiB
    Duration                    : 1 h 21 min
    Overall bit rate mode       : Variable
    Overall bit rate            : 33.3 Mb/s
    Movie name                  : Latte & the Magic Waterstone (2019) CinemaniaHDD.Net
    Encoded date                : UTC 2020-09-02 05:29:31
    Writing application         : mkvmerge v46.0.0 ('No Deeper Escape') 64-bit
    Writing library             : libebml v1.3.10 + libmatroska v1.5.2
    Attachments                 : CINEMANIAHD.png

    Video
    ID                          : 1
    Format                      : AVC
    Format/Info                 : Advanced Video Codec
    Format profile              : High@L4.1
    Format settings             : CABAC / 4 Ref Frames
    Format settings, CABAC      : Yes
    Format settings, Reference  : 4 frames
    Codec ID                    : V_MPEG4/ISO/AVC
    Duration                    : 1 h 21 min
    Bit rate mode               : Constant
    Bit rate                    : 30.0 Mb/s
    Width                       : 1 920 pixels
    Height                      : 1 080 pixels
    Display aspect ratio        : 16:9
    Frame rate mode             : Constant
    Frame rate                  : 23.976 (24000/1001) FPS
    Standard                    : NTSC
    Color space                 : YUV
    Chroma subsampling          : 4:2:0
    Bit depth                   : 8 bits
    Scan type                   : Progressive
    Bits/(Pixel*Frame)          : 0.603
    Stream size                 : 16.5 GiB (87%)
    Title                       : REMUX 1080p [CinemaniaHDD]
    Default                     : Yes
    Forced                      : Yes
    Color range                 : Limited
    Color primaries             : BT.709
    Transfer characteristics    : BT.709
    Matrix coefficients         : BT.709

    Audio #1
    ID                          : 2
    Format                      : AC-3
    Format/Info                 : Audio Coding 3
    Commercial name             : Dolby Digital
    Codec ID                    : A_AC3
    Duration                    : 1 h 21 min
    Bit rate mode               : Constant
    Bit rate                    : 640 kb/s
    Channel(s)                  : 6 channels
    Channel layout              : L R C LFE Ls Rs
    Sampling rate               : 48.0 kHz
    Frame rate                  : 31.250 FPS (1536 SPF)
    Compression mode            : Lossy
    Stream size                 : 375 MiB (2%)
    Title                       : Español Latino [CinemaniaHDD]
    Language                    : Spanish
    Service kind                : Complete Main
    Default                     : Yes
    Forced                      : Yes

    Audio #2
    ID                          : 3
    ID in the original source m : 4352 (0x1100)
    Format                      : DTS XLL
    Format/Info                 : Digital Theater Systems
    Commercial name             : DTS-HD Master Audio
    Codec ID                    : A_DTS
    Duration                    : 1 h 21 min
    Bit rate mode               : Variable
    Bit rate                    : 3 824 kb/s
    Channel(s)                  : 6 channels
    Channel layout              : C L R Ls Rs LFE
    Sampling rate               : 48.0 kHz
    Frame rate                  : 93.750 FPS (512 SPF)
    Bit depth                   : 24 bits
    Compression mode            : Lossless
    Stream size                 : 2.19 GiB (11%)
    Title                       : Aleman [CinemaniaHDD]
    Language                    : German
    Default                     : No
    Forced                      : No
    Original source medium      : Blu-ray

    Text #1
    ID                          : 4
    Format                      : UTF-8
    Codec ID                    : S_TEXT/UTF8
    Codec ID/Info               : UTF-8 Plain Text
    Duration                    : 6 s 0 ms
    Bit rate                    : 44 b/s
    Count of elements           : 1
    Stream size                 : 33.0 Bytes (0%)
    Title                       : Forzados-SRT [CinemaniaHDD]
    Language                    : Spanish
    Default                     : Yes
    Forced                      : Yes

    Text #2
    ID                          : 5
    Format                      : UTF-8
    Codec ID                    : S_TEXT/UTF8
    Codec ID/Info               : UTF-8 Plain Text
    Duration                    : 1 h 20 min
    Bit rate                    : 56 b/s
    Count of elements           : 1279
    Stream size                 : 33.2 KiB (0%)
    Title                       : Español-SRT [CinemaniaHDD]
    Language                    : Spanish
    Default                     : No
    Forced                      : No

    Text #3
    ID                          : 6
    ID in the original source m : 4609 (0x1201)
    Format                      : PGS
    Muxing mode                 : zlib
    Codec ID                    : S_HDMV/PGS
    Codec ID/Info               : Picture based subtitle format used on BDs/HD-DVDs
    Duration                    : 1 h 21 min
    Bit rate                    : 32.3 kb/s
    Count of elements           : 2600
    Stream size                 : 18.9 MiB (0%)
    Title                       : Aleman-PGS [CinemaniaHDD]
    Language                    : German
    Default                     : No
    Forced                      : No
    Original source medium      : Blu-ray

    Menu
    00:00:00.000                : en:Chapter 01
    00:05:18.484                : en:Chapter 02
    00:13:04.909                : en:Chapter 03
    00:23:18.271                : en:Chapter 04
    00:27:15.133                : en:Chapter 05
    00:36:00.533                : en:Chapter 06
    00:40:54.535                : en:Chapter 07
    00:48:23.567                : en:Chapter 08
    00:54:02.030                : en:Chapter 09
    01:05:36.223                : en:Chapter 10
    01:11:49.013                : en:Chapter 11
    01:16:55.360                : en:Chapter 12

  • Peso: 19.1 GiB

Sinopsis

Descargar Latte y la Piedra de Agua Mágica (2019) REMUX 1080p Latino. Existe un cristal mágico, que tiene el poder de devolver el agua al bosque. Pero ha sido robado por Bantour, el rey de los osos. Solo un héroe valiente puede traerlo de vuelta y evitar la sequía. Amy, la pequeña erizo, y su amigo Tom, la ardilla, deciden emprender una aventura para salvar la naturaleza.

Español Latino AC3 5.1 NF – Aleman DTS-HD 5.1 Bluray

Ficha técnica

Video trailer de la película

Enlaces de descarga

Rip de Bluray

Descargar Latte y la Piedra de Agua Mágica (2019) REMUX 1080p Latino




Aportes de DPeliculasHDmega la pass es:dpeliculashdmega.org Aportes de CinemaniaHD la pass es:cinemaniahdd.com
Guardado en : Animación , Aventura , Comedia , Familia , Remux

Películas relacionadas

  • Zola (2020) HD 1080p Latino

    Zola (2020) HD 1080p Latino

    2020
    Zola (2020) HD 1080p Latino

    1h 26m 2020

    Descargar Zola (2020) HD 1080p Latino. Una camarera accede a acompañar a una bailarina exótica, su...

    Director: Sheri Davani

    Género: Comedia

    Actores: Ts Madison

  • Zola (2020) PLACEBO Full HD 1080p Latino

    Zola (2020) PLACEBO Full HD 1080p Latino

    2020
    Zola (2020) PLACEBO Full HD 1080p Latino

    1h 26m 2020

    Descargar Zola (2020) PLACEBO Full HD 1080p Latino. Una camarera accede a acompañar a una bailarina...

    Director: Sheri Davani

    Género: Comedia

    Actores: Ts Madison

  • Zola (2020) REMUX 1080p Latino

    Zola (2020) REMUX 1080p Latino

    2020
    Zola (2020) REMUX 1080p Latino

    1h 26m 2020

    Descargar Zola (2020) REMUX 1080p Latino. Una camarera accede a acompañar a una bailarina exótica,...

    Director: Sheri Davani

    Género: Comedia

    Actores: Ts Madison

descargar Latte y la Piedra de Agua Mágica (2019) REMUX 1080p Latino Full 1080p 1080p gratis, Latte y la Piedra de Agua Mágica (2019) REMUX 1080p Latino Full 1080p mega 1 link, Latte y la Piedra de Agua Mágica (2019) REMUX 1080p Latino Full 1080p pelicula completa, descargar Latte y la Piedra de Agua Mágica (2019) REMUX 1080p Latino Full 1080p gratis en mega.

Latte y la Piedra de Agua Mágica (2019) REMUX 1080p Latino pelicula full hd, Latte y la Piedra de Agua Mágica (2019) REMUX 1080p Latino mega latino, Latte y la Piedra de Agua Mágica (2019) REMUX 1080p Latino 4k latino, Latte y la Piedra de Agua Mágica (2019) REMUX 1080p Latino pelicula completa, Latte y la Piedra de Agua Mágica (2019) REMUX 1080p Latino descargar gratis, descargar Latte y la Piedra de Agua Mágica (2019) REMUX 1080p Latino pelicula latino, Latte y la Piedra de Agua Mágica (2019) REMUX 1080p Latino 1 link mega, Latte y la Piedra de Agua Mágica (2019) REMUX 1080p Latino 1 link google drive, Latte y la Piedra de Agua Mágica (2019) REMUX 1080p Latino hd 1080p latino.
Comentarios 0