×

¿Problemas para descargar con Mozilla, EDGE? Deshabilita la opción "Abrir vinculos en una pestaña nueva" tal como lo muestra ésta imagen.

Latte y la Piedra de Agua Mágica (2019) PLACEBO Full HD 1080p Latino

367 vistas

Información de Latte y la Piedra de Agua Mágica (2019) PLACEBO Full HD 1080p Latino

Datos de la película

  • Calidad: Full 1080p
  • Audio: Se especifica abajo de la Sinopsis
  • Subtitulos: Español Latino SRT- FORZADOS SRT
  • Resolución: 1920x1080p
  • Formato: MKV
  • Codec: H.264
  • Encoder: Melkor
  • Mediainfo: Clic para Mostrar Datos Ver
  • Latte Y La Piedra De Agua Magica (2019) PLACEBO Full HD 1080p Latino.mkv
    Format                      : Matroska
    Format version              : Version 4
    File size                   : 4.08 GiB
    Duration                    : 1 h 21 min
    Overall bit rate            : 7 121 kb/s
    Movie name                  : Latte & the Magic Waterstone (2019) CinemaniaHDD.Net
    Encoded date                : UTC 2020-09-05 01:36:52
    Writing application         : mkvmerge v46.0.0 ('No Deeper Escape') 64-bit
    Writing library             : libebml v1.3.10 + libmatroska v1.5.2
    Attachments                 : CINEMANIAHD.png

    Video
    ID                          : 1
    Format                      : AVC
    Format/Info                 : Advanced Video Codec
    Format profile              : High@L4.1
    Format settings             : CABAC / 4 Ref Frames
    Format settings, CABAC      : Yes
    Format settings, Reference  : 4 frames
    Codec ID                    : V_MPEG4/ISO/AVC
    Duration                    : 1 h 21 min
    Bit rate                    : 4 953 kb/s
    Width                       : 1 920 pixels
    Height                      : 1 080 pixels
    Display aspect ratio        : 16:9
    Frame rate mode             : Constant
    Frame rate                  : 23.976 (24000/1001) FPS
    Color space                 : YUV
    Chroma subsampling          : 4:2:0
    Bit depth                   : 8 bits
    Scan type                   : Progressive
    Bits/(Pixel*Frame)          : 0.100
    Stream size                 : 2.84 GiB (70%)
    Title                       : Full HD1080p [CinemaniaHDD]
    Writing library             : x264 core 157 r2935 545de2f
    Encoding settings           : cabac=1 / ref=4 / deblock=1:0:0 / analyse=0x3:0x133 / me=tesa / subme=11 / psy=1 / psy_rd=1.00:0.00 / mixed_ref=1 / me_range=24 / chroma_me=1 / trellis=2 / 8x8dct=1 / cqm=0 / deadzone=21,11 / fast_pskip=0 / chroma_qp_offset=-2 / threads=24 / lookahead_threads=6 / sliced_threads=0 / nr=0 / decimate=1 / interlaced=0 / bluray_compat=0 / constrained_intra=0 / bframes=16 / b_pyramid=2 / b_adapt=2 / b_bias=0 / direct=3 / weightb=1 / open_gop=0 / weightp=2 / keyint=240 / keyint_min=24 / scenecut=40 / intra_refresh=0 / rc_lookahead=60 / rc=crf / mbtree=1 / crf=19.0 / qcomp=0.60 / qpmin=0 / qpmax=69 / qpstep=4 / vbv_maxrate=62500 / vbv_bufsize=78125 / crf_max=0.0 / nal_hrd=none / filler=0 / ip_ratio=1.40 / aq=1:1.00
    Default                     : Yes
    Forced                      : Yes
    Color range                 : Limited
    Color primaries             : BT.709
    Transfer characteristics    : BT.709
    Matrix coefficients         : BT.709

    Audio #1
    ID                          : 2
    Format                      : AC-3
    Format/Info                 : Audio Coding 3
    Commercial name             : Dolby Digital
    Codec ID                    : A_AC3
    Duration                    : 1 h 21 min
    Bit rate mode               : Constant
    Bit rate                    : 640 kb/s
    Channel(s)                  : 6 channels
    Channel layout              : L R C LFE Ls Rs
    Sampling rate               : 48.0 kHz
    Frame rate                  : 31.250 FPS (1536 SPF)
    Compression mode            : Lossy
    Stream size                 : 375 MiB (9%)
    Title                       : Español Latino [CinemaniaHDD]
    Language                    : Spanish
    Service kind                : Complete Main
    Default                     : Yes
    Forced                      : Yes

    Audio #2
    ID                          : 3
    Format                      : DTS
    Format/Info                 : Digital Theater Systems
    Codec ID                    : A_DTS
    Duration                    : 1 h 21 min
    Bit rate mode               : Constant
    Bit rate                    : 1 509 kb/s
    Channel(s)                  : 6 channels
    Channel layout              : C L R Ls Rs LFE
    Sampling rate               : 48.0 kHz
    Frame rate                  : 93.750 FPS (512 SPF)
    Bit depth                   : 24 bits
    Compression mode            : Lossy
    Stream size                 : 884 MiB (21%)
    Title                       : Aleman [CinemaniaHDD]
    Language                    : German
    Default                     : No
    Forced                      : No

    Text #1
    ID                          : 4
    Format                      : UTF-8
    Codec ID                    : S_TEXT/UTF8
    Codec ID/Info               : UTF-8 Plain Text
    Duration                    : 6 s 0 ms
    Bit rate                    : 44 b/s
    Count of elements           : 1
    Stream size                 : 33.0 Bytes (0%)
    Title                       : Forzados-SRT [CinemaniaHDD]
    Language                    : Spanish
    Default                     : Yes
    Forced                      : Yes

    Text #2
    ID                          : 5
    Format                      : UTF-8
    Codec ID                    : S_TEXT/UTF8
    Codec ID/Info               : UTF-8 Plain Text
    Duration                    : 1 h 20 min
    Bit rate                    : 56 b/s
    Count of elements           : 1279
    Stream size                 : 33.2 KiB (0%)
    Title                       : Español-SRT [CinemaniaHDD]
    Language                    : Spanish
    Default                     : No
    Forced                      : No

    Text #3
    ID                          : 6
    ID in the original source m : 4609 (0x1201)
    Format                      : PGS
    Muxing mode                 : zlib
    Codec ID                    : S_HDMV/PGS
    Codec ID/Info               : Picture based subtitle format used on BDs/HD-DVDs
    Duration                    : 1 h 21 min
    Bit rate                    : 32.3 kb/s
    Count of elements           : 2600
    Stream size                 : 18.9 MiB (0%)
    Title                       : Aleman-PGS [CinemaniaHDD]
    Language                    : German
    Default                     : No
    Forced                      : No
    Original source medium      : Blu-ray

    Menu
    00:00:00.000                : en:Chapter 01
    00:05:18.484                : en:Chapter 02
    00:13:04.909                : en:Chapter 03
    00:23:18.271                : en:Chapter 04
    00:27:15.133                : en:Chapter 05
    00:36:00.533                : en:Chapter 06
    00:40:54.535                : en:Chapter 07
    00:48:23.567                : en:Chapter 08
    00:54:02.030                : en:Chapter 09
    01:05:36.223                : en:Chapter 10
    01:11:49.013                : en:Chapter 11
    01:16:55.360                : en:Chapter 12

  • Peso: 4.08 GiB

Sinopsis

Descargar Latte y la Piedra de Agua Mágica (2019) PLACEBO Full HD 1080p Latino. Existe un cristal mágico, que tiene el poder de devolver el agua al bosque. Pero ha sido robado por Bantour, el rey de los osos. Solo un héroe valiente puede traerlo de vuelta y evitar la sequía. Amy, la pequeña erizo, y su amigo Tom, la ardilla, deciden emprender una aventura para salvar la naturaleza.

Español Latino AC3 5.1 NF – Aleman DTS 5.1 Bluray

Ficha técnica

Video trailer de la película

Enlaces de descarga

Rip de Bluray

Descargar Latte y la Piedra de Agua Mágica (2019) PLACEBO Full HD 1080p Latino




Aportes de DPeliculasHDmega la pass es:dpeliculashdmega.org Aportes de CinemaniaHD la pass es:cinemaniahdd.com

Películas relacionadas

  • Corazón de tinta (2008) Full HD 1080p Latino

    Corazón de tinta (2008) Full HD 1080p Latino

    2008
    Corazón de tinta (2008) Full HD 1080p Latino

    1h 46m 2008

    Descargar Corazón de tinta (2008) Full HD 1080p Latino. Mortimer “Mo” Folchart y su hija de 12 años,...

    Director: Sharon Mansfield

    Género: Aventura

    Actores: Terry Cavanagh

  • Corazón de tinta (2008) REMUX 1080p Latino

    Corazón de tinta (2008) REMUX 1080p Latino

    2008
    Corazón de tinta (2008) REMUX 1080p Latino

    1h 46m 2008

    Descargar Corazón de tinta (2008) REMUX 1080p Latino. Mortimer “Mo” Folchart y su hija de 12 años,...

    Director: Sharon Mansfield

    Género: Aventura

    Actores: Tereza Srbová

  • Juego de espías (2001) Full HD 1080p Latino

    Juego de espías (2001) Full HD 1080p Latino

    2001
    Juego de espías (2001) Full HD 1080p Latino

    2h 6m 2001

    Descargar Juego de espías (2001) Full HD 1080p Latino. Corre el año 1991, y al veterano agente de la...

    Director: Tony Scott

    Género: Acción

    Actores: Zsolt Zágoni

descargar Latte y la Piedra de Agua Mágica (2019) PLACEBO Full HD 1080p Latino Full 1080p 1080p gratis, Latte y la Piedra de Agua Mágica (2019) PLACEBO Full HD 1080p Latino Full 1080p mega 1 link, Latte y la Piedra de Agua Mágica (2019) PLACEBO Full HD 1080p Latino Full 1080p pelicula completa, descargar Latte y la Piedra de Agua Mágica (2019) PLACEBO Full HD 1080p Latino Full 1080p gratis en mega.

Latte y la Piedra de Agua Mágica (2019) PLACEBO Full HD 1080p Latino pelicula full hd, Latte y la Piedra de Agua Mágica (2019) PLACEBO Full HD 1080p Latino mega latino, Latte y la Piedra de Agua Mágica (2019) PLACEBO Full HD 1080p Latino 4k latino, Latte y la Piedra de Agua Mágica (2019) PLACEBO Full HD 1080p Latino pelicula completa, Latte y la Piedra de Agua Mágica (2019) PLACEBO Full HD 1080p Latino descargar gratis, descargar Latte y la Piedra de Agua Mágica (2019) PLACEBO Full HD 1080p Latino pelicula latino, Latte y la Piedra de Agua Mágica (2019) PLACEBO Full HD 1080p Latino 1 link mega, Latte y la Piedra de Agua Mágica (2019) PLACEBO Full HD 1080p Latino 1 link google drive, Latte y la Piedra de Agua Mágica (2019) PLACEBO Full HD 1080p Latino hd 1080p latino.
Comentarios 0