×

¿Problemas para descargar con Mozilla, EDGE? Deshabilita la opción "Abrir vinculos en una pestaña nueva" tal como lo muestra ésta imagen.

Last Night in Soho (2021) REMUX 4K HDR Latino – CMHDD

579 vistas

Información de Last Night in Soho (2021) REMUX 4K HDR Latino – CMHDD

Datos de la película

  • Calidad: 4K HDR
  • Audio: Se especifica abajo de la Sinopsis
  • Subtitulos: Español Latino PGS
  • Resolución: 3840x216p
  • Formato: MKV
  • Codec: H.264
  • Encoder: Dracarys
  • Mediainfo: Clic para Mostrar Datos Ver
  • Format                      : Matroska
    Format version              : Version 4
    File size                   : 45.7 GiB
    Duration                    : 1 h 56 min
    Overall bit rate mode       : Variable
    Overall bit rate            : 56.1 Mb/s
    Movie name                  : Last Night in Soho (2021) REMUX 4K HDR Latino - CMHDD
    Encoded date                : UTC 2022-01-20 20:19:36
    Writing application         : mkvmerge v17.0.0 ('Be Ur Friend') 64-bit
    Writing library             : libebml v1.3.5 + libmatroska v1.4.8

    Video
    ID                          : 1
    Format                      : HEVC
    Format/Info                 : High Efficiency Video Coding
    Format profile              : Main 10@L5.1@High
    HDR format                  : SMPTE ST 2086, HDR10 compatible
    Codec ID                    : V_MPEGH/ISO/HEVC
    Duration                    : 1 h 56 min
    Bit rate                    : 52.5 Mb/s
    Width                       : 3 840 pixels
    Height                      : 2 160 pixels
    Display aspect ratio        : 16:9
    Frame rate mode             : Constant
    Frame rate                  : 23.976 (24000/1001) FPS
    Color space                 : YUV
    Chroma subsampling          : 4:2:0 (Type 2)
    Bit depth                   : 10 bits
    Bits/(Pixel*Frame)          : 0.264
    Stream size                 : 42.7 GiB (94%)
    Default                     : Yes
    Forced                      : No
    Color range                 : Limited
    Color primaries             : BT.2020
    Transfer characteristics    : PQ
    Matrix coefficients         : BT.2020 non-constant
    Mastering display color pri : Display P3
    Mastering display luminance : min: 0.0001 cd/m2, max: 1000 cd/m2
    Maximum Content Light Level : 997 cd/m2
    Maximum Frame-Average Light : 81 cd/m2

    Audio #1
    ID                          : 2
    Format                      : MLP FBA 16-ch
    Format/Info                 : Meridian Lossless Packing FBA with 16-channel presentation
    Commercial name             : Dolby TrueHD with Dolby Atmos
    Codec ID                    : A_TRUEHD
    Duration                    : 1 h 56 min
    Bit rate mode               : Variable
    Bit rate                    : 2 754 kb/s
    Maximum bit rate            : 5 115 kb/s
    Channel(s)                  : 8 channels
    Channel layout              : L R C LFE Ls Rs Lb Rb
    Sampling rate               : 48.0 kHz
    Frame rate                  : 1 200.000 FPS (40 SPF)
    Compression mode            : Lossless
    Stream size                 : 2.24 GiB (5%)
    Language                    : English
    Default                     : No
    Forced                      : No
    Number of dynamic objects   : 11
    Bed channel count           : 1 channel
    Bed channel configuration   : LFE

    Audio #2
    ID                          : 3
    Format                      : E-AC-3
    Format/Info                 : Enhanced AC-3
    Commercial name             : Dolby Digital Plus
    Format profile              : Blu-ray Disc
    Codec ID                    : A_EAC3
    Duration                    : 1 h 56 min
    Bit rate mode               : Constant
    Bit rate                    : 768 kb/s
    Channel(s)                  : 6 channels
    Channel(s)_Original         : 8 channels
    ChannelLayout_Original      : L R C LFE Ls Rs Lrs Rrs
    Sampling rate               : 48.0 kHz
    Frame rate                  : 31.250 FPS (1536 SPF)
    Compression mode            : Lossy
    Stream size                 : 640 MiB (1%)
    Language                    : Spanish
    Service kind                : Complete Main
    Default                     : Yes
    Forced                      : No

    Text #1
    ID                          : 4
    Format                      : PGS
    Muxing mode                 : zlib
    Codec ID                    : S_HDMV/PGS
    Codec ID/Info               : Picture based subtitle format used on BDs/HD-DVDs
    Duration                    : 1 h 55 min
    Bit rate                    : 34.8 kb/s
    Count of elements           : 3454
    Stream size                 : 28.8 MiB (0%)
    Language                    : Spanish
    Default                     : No
    Forced                      : No

    Text #2
    ID                          : 5
    Format                      : PGS
    Muxing mode                 : zlib
    Codec ID                    : S_HDMV/PGS
    Codec ID/Info               : Picture based subtitle format used on BDs/HD-DVDs
    Duration                    : 1 h 55 min
    Bit rate                    : 5 280 b/s
    Count of elements           : 474
    Stream size                 : 4.37 MiB (0%)
    Language                    : Spanish
    Default                     : No
    Forced                      : No

    Menu
    00:00:00.000                : en:Chapter 1
    00:06:08.284                : en:Chapter 2
    00:13:28.015                : en:Chapter 3
    00:17:58.410                : en:Chapter 4
    00:22:24.885                : en:Chapter 5
    00:26:44.227                : en:Chapter 6
    00:33:47.650                : en:Chapter 7
    00:40:02.566                : en:Chapter 8
    00:44:41.011                : en:Chapter 9
    00:51:25.082                : en:Chapter 10
    00:57:22.105                : en:Chapter 11
    01:03:52.912                : en:Chapter 12
    01:09:08.144                : en:Chapter 13
    01:14:40.851                : en:Chapter 14
    01:20:37.666                : en:Chapter 15
    01:26:46.075                : en:Chapter 16
    01:34:01.093                : en:Chapter 17
    01:41:23.911                : en:Chapter 18
    01:49:58.800                : en:Chapter 19
    01:52:18.231                : en:Chapter 20

  • Peso: 45.7 GiB

Sinopsis

Thriller psicológico sobre una joven apasionada por la moda que misteriosamente puede entrar en la década de 1960, donde se encuentra con su ídolo, un atractivo aspirante a cantante. Pero el Londres de los sesenta no es lo que parece, y el tiempo comenzará a desmoronarse con sombrías consecuencias.

 

Latino: E-AC3 7.1  –  Inglés: TrueHD 7.1

Ficha técnica

Video trailer de la película

Enlaces de descarga

Rip de Bluray

Descargar Last Night in Soho (2021) REMUX 4K HDR Latino – CMHDD


Aportes de DPeliculasHDmega la pass es:dpeliculashdmega.org Aportes de CinemaniaHD la pass es:cinemaniahdd.com
Guardado en : Misterio , Suspenso , Terror

Películas relacionadas

descargar Last Night in Soho (2021) REMUX 4K HDR Latino – CMHDD 4K HDR 1080p gratis, Last Night in Soho (2021) REMUX 4K HDR Latino – CMHDD 4K HDR mega 1 link, Last Night in Soho (2021) REMUX 4K HDR Latino – CMHDD 4K HDR pelicula completa, descargar Last Night in Soho (2021) REMUX 4K HDR Latino – CMHDD 4K HDR gratis en mega.

Last Night in Soho (2021) REMUX 4K HDR Latino – CMHDD pelicula full hd, Last Night in Soho (2021) REMUX 4K HDR Latino – CMHDD mega latino, Last Night in Soho (2021) REMUX 4K HDR Latino – CMHDD 4k latino, Last Night in Soho (2021) REMUX 4K HDR Latino – CMHDD pelicula completa, Last Night in Soho (2021) REMUX 4K HDR Latino – CMHDD descargar gratis, descargar Last Night in Soho (2021) REMUX 4K HDR Latino – CMHDD pelicula latino, Last Night in Soho (2021) REMUX 4K HDR Latino – CMHDD 1 link mega, Last Night in Soho (2021) REMUX 4K HDR Latino – CMHDD 1 link google drive, Last Night in Soho (2021) REMUX 4K HDR Latino – CMHDD hd 1080p latino.
Comentarios 0