×

¿Problemas para descargar con Mozilla, EDGE? Deshabilita la opción "Abrir vinculos en una pestaña nueva" tal como lo muestra ésta imagen.

Last Night in Soho (2021) AMZN 4K WEB-DL 2160p Latino

339 vistas

Información de Last Night in Soho (2021) AMZN 4K WEB-DL 2160p Latino

Datos de la película

  • Calidad: 4K HDR
  • Audio: Español Latino AC3 2.0 WEB-DL - Ingles AC3 5.1 WEB-DL
  • Subtitulos: Español Latino SRT- FORZADOS SRT
  • Resolución: 3836x1602
  • Formato: MKV
  • Codec: H.264
  • Encoder: cinemaniahdd
  • Mediainfo: Clic para Mostrar Datos Ver
  • Last Night in Soho (2021) AMZN  4K WEB-DL 2160p Latino [CNMNHDD].mkv
    Format                      : Matroska
    Format version              : Version 4
    File size                   : 12.7 GiB
    Duration                    : 1 h 57 min
    Overall bit rate            : 15.6 Mb/s
    Movie name                  : Last Night in Soho (2021) 4K - CinemaniaHDD.Net
    Encoded date                : UTC 2021-11-19 03:55:14
    Writing application         : mkvmerge v56.1.0 ('My Friend') 64-bit
    Writing library             : libebml v1.4.2 + libmatroska v1.6.4

    Video
    ID                          : 1
    Format                      : HEVC
    Format/Info                 : High Efficiency Video Coding
    Format profile              : Main 10@L5@High
    HDR format                  : SMPTE ST 2086, HDR10 compatible
    Codec ID                    : V_MPEGH/ISO/HEVC
    Duration                    : 1 h 56 min
    Bit rate                    : 14.4 Mb/s
    Width                       : 3 836 pixels
    Height                      : 1 602 pixels
    Display aspect ratio        : 2.40:1
    Frame rate mode             : Constant
    Frame rate                  : 23.976 (24000/1001) FPS
    Color space                 : YUV
    Chroma subsampling          : 4:2:0 (Type 2)
    Bit depth                   : 10 bits
    Bits/(Pixel*Frame)          : 0.098
    Stream size                 : 11.8 GiB (93%)
    Title                       : CinemaniaHDD
    Default                     : Yes
    Forced                      : No
    Color range                 : Limited
    Color primaries             : BT.2020
    Transfer characteristics    : PQ
    Matrix coefficients         : BT.2020 non-constant
    Mastering display color pri : BT.2020
    Mastering display luminance : min: 0.0050 cd/m2, max: 1000 cd/m2
    Maximum Content Light Level : 9013 cd/m2
    Maximum Frame-Average Light : 426 cd/m2

    Audio #1
    ID                          : 2
    Format                      : AC-3
    Format/Info                 : Audio Coding 3
    Commercial name             : Dolby Digital
    Codec ID                    : A_AC3
    Duration                    : 1 h 56 min
    Bit rate mode               : Constant
    Bit rate                    : 384 kb/s
    Channel(s)                  : 2 channels
    Channel layout              : L R
    Sampling rate               : 44.1 kHz
    Frame rate                  : 28.711 FPS (1536 SPF)
    Compression mode            : Lossy
    Delay relative to video     : 11 ms
    Stream size                 : 321 MiB (2%)
    Title                       : Español latino [CinemaniaHDD]
    Language                    : Spanish
    Service kind                : Complete Main
    Default                     : Yes
    Forced                      : No

    Audio #2
    ID                          : 3
    Format                      : E-AC-3 JOC
    Format/Info                 : Enhanced AC-3 with Joint Object Coding
    Commercial name             : Dolby Digital Plus with Dolby Atmos
    Codec ID                    : A_EAC3
    Duration                    : 1 h 57 min
    Bit rate mode               : Constant
    Bit rate                    : 768 kb/s
    Channel(s)                  : 6 channels
    Channel layout              : L R C LFE Ls Rs
    Sampling rate               : 48.0 kHz
    Frame rate                  : 31.250 FPS (1536 SPF)
    Compression mode            : Lossy
    Stream size                 : 643 MiB (5%)
    Title                       : Inglés [CinemaniaHDD]
    Language                    : English
    Service kind                : Complete Main
    Default                     : No
    Forced                      : No
    Complexity index            : 16
    Number of dynamic objects   : 15
    Bed channel count           : 1 channel
    Bed channel configuration   : LFE

    Text #1
    ID                          : 4
    Format                      : UTF-8
    Codec ID                    : S_TEXT/UTF8
    Codec ID/Info               : UTF-8 Plain Text
    Duration                    : 1 h 51 min
    Bit rate                    : 0 b/s
    Count of elements           : 16
    Stream size                 : 573 Bytes (0%)
    Title                       : Forzados [CinemaniaHDD]
    Language                    : Spanish
    Default                     : Yes
    Forced                      : Yes

    Text #2
    ID                          : 5
    Format                      : UTF-8
    Codec ID                    : S_TEXT/UTF8
    Codec ID/Info               : UTF-8 Plain Text
    Duration                    : 1 h 54 min
    Bit rate                    : 56 b/s
    Count of elements           : 1726
    Stream size                 : 47.5 KiB (0%)
    Title                       : Español latino [CinemaniaHDD]
    Language                    : Spanish
    Default                     : No
    Forced                      : No

    Text #3
    ID                          : 6
    Format                      : UTF-8
    Codec ID                    : S_TEXT/UTF8
    Codec ID/Info               : UTF-8 Plain Text
    Duration                    : 1 h 54 min
    Bit rate                    : 60 b/s
    Count of elements           : 1883
    Stream size                 : 50.3 KiB (0%)
    Title                       : Inglés [CinemaniaHDD]
    Language                    : English
    Default                     : No
    Forced                      : No

     

  • Peso: 12.7 GiB

Sinopsis

Thriller psicológico sobre una joven apasionada por la moda que misteriosamente puede entrar en la década de 1960, donde se encuentra con su ídolo, un atractivo aspirante a cantante. Pero el Londres de los sesenta no es lo que parece, y el tiempo comenzará a desmoronarse con sombrías consecuencias.

Ficha técnica

Video trailer de la película

Enlaces de descarga

Rip de Bluray

Descargar Last Night in Soho (2021) AMZN 4K WEB-DL 2160p Latino




Aportes de DPeliculasHDmega la pass es:dpeliculashdmega.org Aportes de CinemaniaHD la pass es:cinemaniahdd.com
Guardado en : 4K HDR , 4K UHD , Misterio , Suspenso , Terror

Películas relacionadas

descargar Last Night in Soho (2021) AMZN 4K WEB-DL 2160p Latino 4K HDR 1080p gratis, Last Night in Soho (2021) AMZN 4K WEB-DL 2160p Latino 4K HDR mega 1 link, Last Night in Soho (2021) AMZN 4K WEB-DL 2160p Latino 4K HDR pelicula completa, descargar Last Night in Soho (2021) AMZN 4K WEB-DL 2160p Latino 4K HDR gratis en mega.

Last Night in Soho (2021) AMZN 4K WEB-DL 2160p Latino pelicula full hd, Last Night in Soho (2021) AMZN 4K WEB-DL 2160p Latino mega latino, Last Night in Soho (2021) AMZN 4K WEB-DL 2160p Latino 4k latino, Last Night in Soho (2021) AMZN 4K WEB-DL 2160p Latino pelicula completa, Last Night in Soho (2021) AMZN 4K WEB-DL 2160p Latino descargar gratis, descargar Last Night in Soho (2021) AMZN 4K WEB-DL 2160p Latino pelicula latino, Last Night in Soho (2021) AMZN 4K WEB-DL 2160p Latino 1 link mega, Last Night in Soho (2021) AMZN 4K WEB-DL 2160p Latino 1 link google drive, Last Night in Soho (2021) AMZN 4K WEB-DL 2160p Latino hd 1080p latino.
Comentarios 0