×

¿Problemas para descargar con Mozilla, EDGE? Deshabilita la opción "Abrir vinculos en una pestaña nueva" tal como lo muestra ésta imagen.

Last Christmas (2019) WEB-DL 1080p Latino

1.181 vistas

Información de Last Christmas (2019) WEB-DL 1080p Latino

Datos de la película

  • Calidad: WEBDL
  • Audio: Español Latino AC3 2.0 iTunes - Ingles AC3 5.1 iTunes
  • Subtitulos: Español Latino SRT- FORZADOS SRT
  • Resolución: 1920x958
  • Formato: MKV
  • Codec: H.264
  • Encoder: cinemaniahd
  • Mediainfo: Clic para Mostrar Datos Ver
  • Last Christmas(2019) WEB-DL 1080p Latino.mkv
    Format                      : Matroska
    Format version              : Version 4
    File size                   : 3.97 GiB
    Duration                    : 1 h 42 min
    Overall bit rate            : 5 532 kb/s
    Movie name                  : Last Christmas(2019) WEB-DL 1080p Latino
    Encoded date                : UTC 2020-01-21 14:03:00
    Writing application         : mkvmerge v42.0.0 ('Overtime') 64-bit
    Writing library             : libebml v1.3.10 + libmatroska v1.5.2
    Cover                       : Yes
    Attachments                 : cover.jpg

    Video
    ID                          : 1
    Format                      : AVC
    Format/Info                 : Advanced Video Codec
    Format profile              : High@L4
    Format settings             : CABAC / 4 Ref Frames
    Format settings, CABAC      : Yes
    Format settings, ReFrames   : 4 frames
    Codec ID                    : V_MPEG4/ISO/AVC
    Duration                    : 1 h 42 min
    Bit rate                    : 5 018 kb/s
    Width                       : 1 920 pixels
    Height                      : 958 pixels
    Display aspect ratio        : 2.004
    Frame rate mode             : Constant
    Frame rate                  : 23.976 (24000/1001) FPS
    Color space                 : YUV
    Chroma subsampling          : 4:2:0
    Bit depth                   : 8 bits
    Scan type                   : Progressive
    Bits/(Pixel*Frame)          : 0.114
    Stream size                 : 3.60 GiB (91%)
    Title                       : CinemaniaHDD
    Language                    : English
    Default                     : Yes
    Forced                      : No
    Color range                 : Limited
    Color primaries             : BT.709
    Transfer characteristics    : BT.709
    Matrix coefficients         : BT.709

    Audio #1
    ID                          : 2
    Format                      : AAC LC
    Format/Info                 : Advanced Audio Codec Low Complexity
    Codec ID                    : A_AAC-2
    Duration                    : 1 h 42 min
    Bit rate                    : 127 kb/s
    Channel(s)                  : 2 channels
    Channel layout              : L R
    Sampling rate               : 48.0 kHz
    Frame rate                  : 46.875 FPS (1024 SPF)
    Compression mode            : Lossy
    Delay relative to video     : -42 ms
    Stream size                 : 93.1 MiB (2%)
    Title                       : Español latino [CinemaniaHDD]
    Language                    : Spanish
    Default                     : No
    Forced                      : No

    Audio #2
    ID                          : 3
    Format                      : AC-3
    Format/Info                 : Audio Coding 3
    Commercial name             : Dolby Digital
    Codec ID                    : A_AC3
    Duration                    : 1 h 42 min
    Bit rate mode               : Constant
    Bit rate                    : 384 kb/s
    Channel(s)                  : 6 channels
    Channel layout              : L R C LFE Ls Rs
    Sampling rate               : 48.0 kHz
    Frame rate                  : 31.250 FPS (1536 SPF)
    Bit depth                   : 16 bits
    Compression mode            : Lossy
    Delay relative to video     : -42 ms
    Stream size                 : 282 MiB (7%)
    Title                       : Inglés [CinemaniaHDD]
    Language                    : English
    Service kind                : Complete Main
    Default                     : Yes
    Forced                      : No

    Text #1
    ID                          : 4
    Format                      : UTF-8
    Codec ID                    : S_TEXT/UTF8
    Codec ID/Info               : UTF-8 Plain Text
    Duration                    : 1 h 14 min
    Bit rate                    : 0 b/s
    Count of elements           : 12
    Stream size                 : 345 Bytes (0%)
    Title                       : Forzados [CinemaniaHDD]
    Language                    : Spanish
    Default                     : Yes
    Forced                      : No

    Text #2
    ID                          : 5
    Format                      : UTF-8
    Codec ID                    : S_TEXT/UTF8
    Codec ID/Info               : UTF-8 Plain Text
    Duration                    : 1 h 41 min
    Bit rate                    : 62 b/s
    Count of elements           : 1596
    Stream size                 : 46.1 KiB (0%)
    Title                       : Español latino [CinemaniaHDD]
    Language                    : Spanish
    Default                     : No
    Forced                      : No

    Menu
    00:00:00.000                : en:1
    00:05:49.391                : en:2
    00:10:27.961                : en:3
    00:16:48.341                : en:4
    00:23:21.942                : en:5
    00:26:16.657                : en:6
    00:29:40.234                : en:7
    00:36:01.364                : en:8
    00:40:52.988                : en:9
    00:45:32.308                : en:10
    00:49:56.612                : en:11
    00:52:27.762                : en:12
    00:58:11.814                : en:13
    01:05:49.438                : en:14
    01:10:32.179                : en:15
    01:13:51.586                : en:16
    01:19:32.217                : en:17
    01:24:24.592                : en:18
    01:30:43.803                : en:19
    01:37:42.720                : en:20

  • Peso: 3.97 GiB

Sinopsis

Kate es una mujer joven que suele tomar siempre la decisión menos acertada. ¿Su último error? Haber aceptado un trabajo como elfo de Santa Claus en un centro comercial. Sin embargo, el destino la lleva a conocer a Tom, circunstancia que cambia por completo su vida. Para Kate, todo es demasiado bueno para ser cierto.

Ficha técnica

Video trailer de la película

Enlaces de descarga

Rip de Bluray

Descargar Last Christmas (2019) WEB-DL 1080p Latino




Aportes de DPeliculasHDmega la pass es:dpeliculashdmega.org Aportes de CinemaniaHD la pass es:cinemaniahdd.com
Guardado en : Comedia , Drama , Romance

Películas relacionadas

descargar Last Christmas (2019) WEB-DL 1080p Latino WEBDL 1080p gratis, Last Christmas (2019) WEB-DL 1080p Latino WEBDL mega 1 link, Last Christmas (2019) WEB-DL 1080p Latino WEBDL pelicula completa, descargar Last Christmas (2019) WEB-DL 1080p Latino WEBDL gratis en mega.

Last Christmas (2019) WEB-DL 1080p Latino pelicula full hd, Last Christmas (2019) WEB-DL 1080p Latino mega latino, Last Christmas (2019) WEB-DL 1080p Latino 4k latino, Last Christmas (2019) WEB-DL 1080p Latino pelicula completa, Last Christmas (2019) WEB-DL 1080p Latino descargar gratis, descargar Last Christmas (2019) WEB-DL 1080p Latino pelicula latino, Last Christmas (2019) WEB-DL 1080p Latino 1 link mega, Last Christmas (2019) WEB-DL 1080p Latino 1 link google drive, Last Christmas (2019) WEB-DL 1080p Latino hd 1080p latino.
Comentarios 0