×

¿Problemas para descargar con Mozilla, EDGE? Deshabilita la opción "Abrir vinculos en una pestaña nueva" tal como lo muestra ésta imagen.

Last Christmas (2019) REMUX 1080p Latino – CMHDD

84 vistas

Información de Last Christmas (2019) REMUX 1080p Latino – CMHDD

Datos de la película

  • Calidad: Full 1080p
  • Audio: Español Latino DTS-HD Master 7.1 BLURAY - Ingles DTS 5.1 BLURAY
  • Subtitulos: Español Latino PGS
  • Resolución: 1929x1080p
  • Formato: MKV
  • Codec: H.264
  • Encoder: Dracarys
  • Mediainfo: Clic para Mostrar Datos Ver
  • Format                      : Matroska
    Format version              : Version 4
    File size                   : 24.1 GiB
    Duration                    : 1 h 42 min
    Overall bit rate mode       : Variable
    Overall bit rate            : 33.5 Mb/s
    Movie name                  : Last Christmas (2019) REMUX 1080p Latino - CMHDD
    Encoded date                : UTC 2021-12-10 18:05:15
    Writing application         : mkvmerge v17.0.0 ('Be Ur Friend') 64-bit
    Writing library             : libebml v1.3.5 + libmatroska v1.4.8

    Video
    ID                          : 1
    Format                      : AVC
    Format/Info                 : Advanced Video Codec
    Format profile              : High@L4.1
    Format settings             : CABAC / 2 Ref Frames
    Format settings, CABAC      : Yes
    Format settings, Reference  : 2 frames
    Codec ID                    : V_MPEG4/ISO/AVC
    Duration                    : 1 h 42 min
    Bit rate mode               : Variable
    Bit rate                    : 26.8 Mb/s
    Width                       : 1 920 pixels
    Height                      : 1 080 pixels
    Display aspect ratio        : 16:9
    Frame rate mode             : Constant
    Frame rate                  : 23.976 (24000/1001) FPS
    Color space                 : YUV
    Chroma subsampling          : 4:2:0
    Bit depth                   : 8 bits
    Scan type                   : Progressive
    Bits/(Pixel*Frame)          : 0.538
    Stream size                 : 19.2 GiB (80%)
    Default                     : Yes
    Forced                      : No

    Audio #1
    ID                          : 2
    Format                      : DTS XLL
    Format/Info                 : Digital Theater Systems
    Commercial name             : DTS-HD Master Audio
    Codec ID                    : A_DTS
    Duration                    : 1 h 42 min
    Bit rate mode               : Variable
    Bit rate                    : 4 663 kb/s
    Channel(s)                  : 8 channels
    Channel layout              : C L R LFE Lb Rb Lss Rss
    Sampling rate               : 48.0 kHz
    Frame rate                  : 93.750 FPS (512 SPF)
    Bit depth                   : 24 bits
    Compression mode            : Lossless
    Stream size                 : 3.35 GiB (14%)
    Language                    : English
    Default                     : No
    Forced                      : No

    Audio #2
    ID                          : 3
    Format                      : DTS XBR
    Format/Info                 : Digital Theater Systems
    Commercial name             : DTS-HD High Resolution Audio
    Codec ID                    : A_DTS
    Duration                    : 1 h 42 min
    Bit rate mode               : Constant
    Bit rate                    : 2 046 kb/s
    Channel(s)                  : 8 channels
    Channel layout              : C L R LFE Lb Rb Lss Rss
    Sampling rate               : 48.0 kHz
    Frame rate                  : 93.750 FPS (512 SPF)
    Bit depth                   : 24 bits
    Compression mode            : Lossy
    Stream size                 : 1.47 GiB (6%)
    Language                    : Spanish
    Default                     : Yes
    Forced                      : No

    Text #1
    ID                          : 4
    Format                      : PGS
    Muxing mode                 : zlib
    Codec ID                    : S_HDMV/PGS
    Codec ID/Info               : Picture based subtitle format used on BDs/HD-DVDs
    Duration                    : 1 h 41 min
    Bit rate                    : 42.4 kb/s
    Count of elements           : 3224
    Stream size                 : 30.8 MiB (0%)
    Language                    : Spanish
    Default                     : No
    Forced                      : No

    Text #2
    ID                          : 5
    Format                      : PGS
    Muxing mode                 : zlib
    Codec ID                    : S_HDMV/PGS
    Codec ID/Info               : Picture based subtitle format used on BDs/HD-DVDs
    Duration                    : 1 h 41 min
    Bit rate                    : 3 116 b/s
    Count of elements           : 216
    Stream size                 : 2.26 MiB (0%)
    Language                    : Spanish
    Default                     : No
    Forced                      : No

    Menu
    00:00:00.000                : en:Chapter 1
    00:05:48.389                : en:Chapter 2
    00:10:26.959                : en:Chapter 3
    00:16:47.339                : en:Chapter 4
    00:23:20.941                : en:Chapter 5
    00:26:15.657                : en:Chapter 6
    00:29:39.235                : en:Chapter 7
    00:36:00.366                : en:Chapter 8
    00:40:51.991                : en:Chapter 9
    00:45:31.311                : en:Chapter 10
    00:49:55.617                : en:Chapter 11
    00:52:26.768                : en:Chapter 12
    00:58:10.820                : en:Chapter 13
    01:05:48.444                : en:Chapter 14
    01:10:31.185                : en:Chapter 15
    01:13:50.592                : en:Chapter 16
    01:19:31.224                : en:Chapter 17
    01:24:23.600                : en:Chapter 18
    01:30:42.812                : en:Chapter 19
    01:37:41.730                : en:Chapter 20

  • Peso: 24.1 GiB

Sinopsis

Kate es una mujer joven que suele tomar siempre la decisión menos acertada. ¿Su último error? Haber aceptado un trabajo como elfo de Santa Claus en un centro comercial. Sin embargo, el destino la lleva a conocer a Tom, circunstancia que cambia por completo su vida. Para Kate, todo es demasiado bueno para ser cierto.

Ficha técnica

Video trailer de la película

Enlaces de descarga

Rip de Bluray

Descargar Last Christmas (2019) REMUX 1080p Latino – CMHDD


Aportes de DPeliculasHDmega la pass es:dpeliculashdmega.org Aportes de CinemaniaHD la pass es:cinemaniahdd.com
Guardado en : Comedia , Drama , Romance

Películas relacionadas

  • Men in Black (1997) REMUX 4K HDR Latino – CMHDD

    Men in Black (1997) REMUX 4K HDR Latino – CMHDD

    1997
    Men in Black (1997) REMUX 4K HDR Latino – CMHDD

    1h 34m 1997

    Durante muchos años los extraterrestres han vivido en la Tierra, mezclados con los humanos, sin que...

    Director: Tyrone S. Walker

    Género: Acción

    Actores: Willie C. Carpenter

  • Blonde (2022) NF WEB-DL 1080p Latino

    Blonde (2022) NF WEB-DL 1080p Latino

    2022
    Blonde (2022) NF WEB-DL 1080p Latino

    2h 46m 2022

    Descargar Blonde (2022) NF WEB-DL 1080p Latino. Basada en el bestseller de la cinco veces finalista al...

    Director: Kristin Bree Calabrese

    Género: Drama

    Actores: Xavier Samuel

  • Tren Bala (2022) WEB-DL 4K UHD HDR Latino

    Tren Bala (2022) WEB-DL 4K UHD HDR Latino

    2022
    Tren Bala (2022) WEB-DL 4K UHD HDR Latino

    2h 7m 2022

    Descargar Tren Bala (2022) WEB-DL 4K UHD HDR Latino. El desafortunado asesino "Catarina" está decidido...

    Director: Paul Barry

    Género: 4K HDR

    Actores: Zooey Miyoshi

  • Tren Bala (2022) AMZN WEB-DL 1080p Latino

    Tren Bala (2022) AMZN WEB-DL 1080p Latino

    2022
    Tren Bala (2022) AMZN WEB-DL 1080p Latino

    2h 7m 2022

    Descargar Tren Bala (2022) AMZN WEB-DL 1080p Latino. Cinco asesinos a sueldo se encuentran a bordo de...

    Director: Paul Barry

    Género: Acción

    Actores: Zooey Miyoshi

descargar Last Christmas (2019) REMUX 1080p Latino – CMHDD Full 1080p 1080p gratis, Last Christmas (2019) REMUX 1080p Latino – CMHDD Full 1080p mega 1 link, Last Christmas (2019) REMUX 1080p Latino – CMHDD Full 1080p pelicula completa, descargar Last Christmas (2019) REMUX 1080p Latino – CMHDD Full 1080p gratis en mega.

Last Christmas (2019) REMUX 1080p Latino – CMHDD pelicula full hd, Last Christmas (2019) REMUX 1080p Latino – CMHDD mega latino, Last Christmas (2019) REMUX 1080p Latino – CMHDD 4k latino, Last Christmas (2019) REMUX 1080p Latino – CMHDD pelicula completa, Last Christmas (2019) REMUX 1080p Latino – CMHDD descargar gratis, descargar Last Christmas (2019) REMUX 1080p Latino – CMHDD pelicula latino, Last Christmas (2019) REMUX 1080p Latino – CMHDD 1 link mega, Last Christmas (2019) REMUX 1080p Latino – CMHDD 1 link google drive, Last Christmas (2019) REMUX 1080p Latino – CMHDD hd 1080p latino.
Comentarios 0