×

¿Problemas para descargar con Mozilla, EDGE? Deshabilita la opción "Abrir vinculos en una pestaña nueva" tal como lo muestra ésta imagen.

Last Christmas (2019) PLACEBO 1080p Latino

1.424 vistas

Información de Last Christmas (2019) PLACEBO 1080p Latino

Datos de la película

  • Calidad: Full 1080p
  • Audio: Español Latino DTS 5.1 BLURAY - Ingles DTS 5.1 BLURAY
  • Subtitulos: Español Latino SRT- FORZADOS SRT
  • Resolución: 1920x1080
  • Formato: MKV
  • Codec: H.264
  • Encoder: cinemaniahdd
  • Mediainfo: Clic para Mostrar Datos Ver
  • Last Christmas (2019) PLACEBO 1080p Latino.mkv
    Format                      : Matroska
    Format version              : Version 4
    File size                   : 5.50 GiB
    Duration                    : 1 h 42 min
    Overall bit rate            : 7 657 kb/s
    Movie name                  : Last Christmas (2019) - CinemaniaHDD.Net
    Encoded date                : UTC 2020-01-30 15:06:20
    Writing application         : mkvmerge v42.0.0 ('Overtime') 64-bit
    Writing library             : libebml v1.3.10 + libmatroska v1.5.2

    Video
    ID                          : 1
    Format                      : AVC
    Format/Info                 : Advanced Video Codec
    Format profile              : High@L4.1
    Format settings             : CABAC / 4 Ref Frames
    Format settings, CABAC      : Yes
    Format settings, ReFrames   : 4 frames
    Codec ID                    : V_MPEG4/ISO/AVC
    Duration                    : 1 h 42 min
    Bit rate                    : 4 612 kb/s
    Width                       : 1 920 pixels
    Height                      : 1 080 pixels
    Display aspect ratio        : 16:9
    Frame rate mode             : Constant
    Frame rate                  : 23.976 (24000/1001) FPS
    Color space                 : YUV
    Chroma subsampling          : 4:2:0
    Bit depth                   : 8 bits
    Scan type                   : Progressive
    Bits/(Pixel*Frame)          : 0.093
    Stream size                 : 3.31 GiB (60%)
    Title                       : CinemaniaHDD
    Writing library             : x264 core 157 r2935 545de2f
    Encoding settings           : cabac=1 / ref=4 / deblock=1:0:0 / analyse=0x3:0x133 / me=tesa / subme=11 / psy=1 / psy_rd=1.00:0.00 / mixed_ref=1 / me_range=24 / chroma_me=1 / trellis=2 / 8x8dct=1 / cqm=0 / deadzone=21,11 / fast_pskip=0 / chroma_qp_offset=-2 / threads=34 / lookahead_threads=8 / sliced_threads=0 / nr=0 / decimate=1 / interlaced=0 / bluray_compat=0 / constrained_intra=0 / bframes=16 / b_pyramid=2 / b_adapt=2 / b_bias=0 / direct=3 / weightb=1 / open_gop=0 / weightp=2 / keyint=240 / keyint_min=24 / scenecut=40 / intra_refresh=0 / rc_lookahead=60 / rc=crf / mbtree=1 / crf=20.0 / qcomp=0.60 / qpmin=0 / qpmax=69 / qpstep=4 / vbv_maxrate=62500 / vbv_bufsize=78125 / crf_max=0.0 / nal_hrd=none / filler=0 / ip_ratio=1.40 / aq=1:1.00
    Default                     : Yes
    Forced                      : No
    Color range                 : Limited
    Color primaries             : BT.709
    Transfer characteristics    : BT.709
    Matrix coefficients         : BT.709

    Audio #1
    ID                          : 2
    Format                      : DTS
    Format/Info                 : Digital Theater Systems
    Codec ID                    : A_DTS
    Duration                    : 1 h 42 min
    Bit rate mode               : Constant
    Bit rate                    : 1 509 kb/s
    Channel(s)                  : 6 channels
    Channel layout              : C L R Ls Rs LFE
    Sampling rate               : 48.0 kHz
    Frame rate                  : 93.750 FPS (512 SPF)
    Bit depth                   : 24 bits
    Compression mode            : Lossy
    Stream size                 : 1.08 GiB (20%)
    Title                       : Español latino [CinemaniaHDD]
    Language                    : Spanish
    Default                     : Yes
    Forced                      : No

    Audio #2
    ID                          : 3
    Format                      : DTS
    Format/Info                 : Digital Theater Systems
    Codec ID                    : A_DTS
    Duration                    : 1 h 42 min
    Bit rate mode               : Constant
    Bit rate                    : 1 509 kb/s
    Channel(s)                  : 6 channels
    Channel layout              : C L R Ls Rs LFE
    Sampling rate               : 48.0 kHz
    Frame rate                  : 93.750 FPS (512 SPF)
    Bit depth                   : 24 bits
    Compression mode            : Lossy
    Stream size                 : 1.08 GiB (20%)
    Title                       : Inglés [CinemaniaHDD]
    Language                    : English
    Default                     : No
    Forced                      : No

    Text #1
    ID                          : 4
    Format                      : UTF-8
    Codec ID                    : S_TEXT/UTF8
    Codec ID/Info               : UTF-8 Plain Text
    Duration                    : 1 h 41 min
    Bit rate                    : 5 b/s
    Count of elements           : 117
    Stream size                 : 4.01 KiB (0%)
    Title                       : Forzados [CinemaniaHDD]
    Language                    : Spanish
    Default                     : Yes
    Forced                      : Yes

    Text #2
    ID                          : 5
    Format                      : PGS
    Muxing mode                 : zlib
    Codec ID                    : S_HDMV/PGS
    Codec ID/Info               : Picture based subtitle format used on BDs/HD-DVDs
    Duration                    : 1 h 41 min
    Bit rate                    : 3 116 b/s
    Count of elements           : 216
    Stream size                 : 2.26 MiB (0%)
    Title                       : Forzados - PGS [CinemaniaHDD]
    Language                    : Spanish
    Default                     : No
    Forced                      : No

    Text #3
    ID                          : 6
    Format                      : UTF-8
    Codec ID                    : S_TEXT/UTF8
    Codec ID/Info               : UTF-8 Plain Text
    Duration                    : 1 h 41 min
    Bit rate                    : 62 b/s
    Count of elements           : 1593
    Stream size                 : 46.5 KiB (0%)
    Title                       : Español latino [CinemaniaHDD]
    Language                    : Spanish
    Default                     : No
    Forced                      : No

    Text #4
    ID                          : 7
    Format                      : PGS
    Muxing mode                 : zlib
    Codec ID                    : S_HDMV/PGS
    Codec ID/Info               : Picture based subtitle format used on BDs/HD-DVDs
    Duration                    : 1 h 41 min
    Bit rate                    : 42.4 kb/s
    Count of elements           : 3224
    Stream size                 : 30.8 MiB (1%)
    Title                       : Español latino - PGS [CinemaniaHDD]
    Language                    : Spanish
    Default                     : No
    Forced                      : No

    Menu
    00:00:00.000                : :Chapter 1
    00:05:48.390                : :Chapter 2
    00:10:26.960                : :Chapter 3
    00:16:47.340                : :Chapter 4
    00:23:21.025                : :Chapter 5
    00:26:15.741                : :Chapter 6
    00:29:39.236                : :Chapter 7
    00:36:00.367                : :Chapter 8
    00:40:52.075                : :Chapter 9
    00:45:31.312                : :Chapter 10
    00:49:55.618                : :Chapter 11
    00:52:26.769                : :Chapter 12
    00:58:10.821                : :Chapter 13
    01:05:48.445                : :Chapter 14
    01:10:31.269                : :Chapter 15
    01:13:50.593                : :Chapter 16
    01:19:31.225                : :Chapter 17
    01:24:23.684                : :Chapter 18
    01:30:42.896                : :Chapter 19
    01:37:41.731                : :Chapter 20

     

  • Peso: 5.50 GiB

Sinopsis

Kate es una mujer joven que suele tomar siempre la decisión menos acertada. ¿Su último error? Haber aceptado un trabajo como elfo de Santa Claus en un centro comercial. Sin embargo, el destino la lleva a conocer a Tom, circunstancia que cambia por completo su vida. Para Kate, todo es demasiado bueno para ser cierto.

Ficha técnica

Video trailer de la película

Enlaces de descarga

Rip de Bluray

Descargar Last Christmas (2019) PLACEBO 1080p Latino




Aportes de DPeliculasHDmega la pass es:dpeliculashdmega.org Aportes de CinemaniaHD la pass es:cinemaniahdd.com

Películas relacionadas

descargar Last Christmas (2019) PLACEBO 1080p Latino Full 1080p 1080p gratis, Last Christmas (2019) PLACEBO 1080p Latino Full 1080p mega 1 link, Last Christmas (2019) PLACEBO 1080p Latino Full 1080p pelicula completa, descargar Last Christmas (2019) PLACEBO 1080p Latino Full 1080p gratis en mega.

Last Christmas (2019) PLACEBO 1080p Latino pelicula full hd, Last Christmas (2019) PLACEBO 1080p Latino mega latino, Last Christmas (2019) PLACEBO 1080p Latino 4k latino, Last Christmas (2019) PLACEBO 1080p Latino pelicula completa, Last Christmas (2019) PLACEBO 1080p Latino descargar gratis, descargar Last Christmas (2019) PLACEBO 1080p Latino pelicula latino, Last Christmas (2019) PLACEBO 1080p Latino 1 link mega, Last Christmas (2019) PLACEBO 1080p Latino 1 link google drive, Last Christmas (2019) PLACEBO 1080p Latino hd 1080p latino.
Comentarios 0