×

¿Problemas para descargar con Mozilla, EDGE? Deshabilita la opción "Abrir vinculos en una pestaña nueva" tal como lo muestra ésta imagen.

Last Action Hero (1993) REMUX 1080p Latino – CMHDD

225 vistas

Información de Last Action Hero (1993) REMUX 1080p Latino – CMHDD

Datos de la película

  • Calidad: Full 1080p
  • Audio: Español Latino AC3 5.1 BLURAY - Ingles DTS 5.1 BLURAY
  • Subtitulos: Español Latino PGS
  • Resolución: 1920x1080p
  • Formato: MKV
  • Codec: H.264
  • Encoder: Dracarys
  • Mediainfo: Clic para Mostrar Datos Ver
  • Format                      : Matroska
    Format version              : Version 4
    File size                   : 29.2 GiB
    Duration                    : 2 h 10 min
    Overall bit rate mode       : Variable
    Overall bit rate            : 31.9 Mb/s
    Movie name                  : Last Action Hero (1993) REMUX 1080p Latino - CMHDD
    Encoded date                : UTC 2023-07-08 20:42:59
    Writing application         : mkvmerge v47.0.0 ('Black Flag') 64-bit
    Writing library             : libebml v1.3.10 + libmatroska v1.5.2
    Cover                       : Yes
    Attachments                 : cover.jpg

    Video
    ID                          : 1
    ID in the original source m : 4113 (0x1011)
    Format                      : AVC
    Format/Info                 : Advanced Video Codec
    Format profile              : High@L4.1
    Format settings             : CABAC / 2 Ref Frames
    Format settings, CABAC      : Yes
    Format settings, Reference  : 2 frames
    Codec ID                    : V_MPEG4/ISO/AVC
    Duration                    : 2 h 10 min
    Bit rate mode               : Variable
    Bit rate                    : 27.9 Mb/s
    Width                       : 1 920 pixels
    Height                      : 1 080 pixels
    Display aspect ratio        : 16:9
    Frame rate mode             : Constant
    Frame rate                  : 23.976 (24000/1001) FPS
    Color space                 : YUV
    Chroma subsampling          : 4:2:0
    Bit depth                   : 8 bits
    Scan type                   : Progressive
    Bits/(Pixel*Frame)          : 0.561
    Stream size                 : 25.5 GiB (87%)
    Default                     : Yes
    Forced                      : No
    Original source medium      : Blu-ray

    Audio #1
    ID                          : 2
    ID in the original source m : 4352 (0x1100)
    Format                      : DTS XLL
    Format/Info                 : Digital Theater Systems
    Commercial name             : DTS-HD Master Audio
    Codec ID                    : A_DTS
    Duration                    : 2 h 10 min
    Bit rate mode               : Variable
    Bit rate                    : 3 348 kb/s
    Channel(s)                  : 6 channels
    Channel layout              : C L R Ls Rs LFE
    Sampling rate               : 48.0 kHz
    Frame rate                  : 93.750 FPS (512 SPF)
    Bit depth                   : 24 bits
    Compression mode            : Lossless
    Stream size                 : 3.06 GiB (10%)
    Language                    : English
    Default                     : No
    Forced                      : No
    Original source medium      : Blu-ray

    Audio #2
    ID                          : 3
    ID in the original source m : 4354 (0x1102)
    Format                      : AC-3
    Format/Info                 : Audio Coding 3
    Commercial name             : Dolby Digital
    Codec ID                    : A_AC3
    Duration                    : 2 h 10 min
    Bit rate mode               : Constant
    Bit rate                    : 640 kb/s
    Channel(s)                  : 6 channels
    Channel layout              : L R C LFE Ls Rs
    Sampling rate               : 48.0 kHz
    Frame rate                  : 31.250 FPS (1536 SPF)
    Compression mode            : Lossy
    Stream size                 : 599 MiB (2%)
    Language                    : Spanish
    Service kind                : Complete Main
    Default                     : Yes
    Forced                      : No
    Original source medium      : Blu-ray

    Text
    ID                          : 4
    ID in the original source m : 4611 (0x1203)
    Format                      : PGS
    Muxing mode                 : zlib
    Codec ID                    : S_HDMV/PGS
    Codec ID/Info               : Picture based subtitle format used on BDs/HD-DVDs
    Duration                    : 2 h 3 min
    Bit rate                    : 32.2 kb/s
    Frame rate                  : 0.381 FPS
    Count of elements           : 2820
    Stream size                 : 28.4 MiB (0%)
    Language                    : Spanish
    Default                     : No
    Forced                      : No
    Original source medium      : Blu-ray

    Menu
    00:00:00.000                : en:Capítulo 01
    00:08:53.866                : en:Capítulo 02
    00:14:53.767                : en:Capítulo 03
    00:22:30.015                : en:Capítulo 04
    00:30:32.121                : en:Capítulo 05
    00:42:04.647                : en:Capítulo 06
    00:48:14.975                : en:Capítulo 07
    00:52:58.633                : en:Capítulo 08
    00:56:37.602                : en:Capítulo 09
    01:07:04.895                : en:Capítulo 10
    01:13:36.537                : en:Capítulo 11
    01:20:20.941                : en:Capítulo 12
    01:24:14.591                : en:Capítulo 13
    01:40:47.666                : en:Capítulo 14
    01:47:15.095                : en:Capítulo 15
    01:56:03.831                : en:Capítulo 16

  • Peso: 29.2 GiB

Sinopsis

Danny Madigan es un fantasioso chico, ferviente admirador de Jack Slater, el mayor héroe del cine de acción. Nunca se pierde ninguna de sus películas, así que, ante el estreno de su última superproducción, el viejo acomodador del cine le regala al joven fan una entrada para que la vea en primicia. Gracias a esa entrada, que resulta tener poderes mágicos, Danny consigue introducirse en la pantalla y vivir trepidantes aventuras con Jack.

Ficha técnica

Video trailer de la película

Enlaces de descarga

Rip de Bluray

Descargar Last Action Hero (1993) REMUX 1080p Latino – CMHDD


Aportes de DPeliculasHDmega la pass es:dpeliculashdmega.org Aportes de CinemaniaHD la pass es:cinemaniahdd.com Aportes recientes:cinemaniahdd.net
Guardado en : Acción , Aventura , Comedia , Familia , Fantasía

Películas relacionadas

  • Spider-Man 2 (2004) REMUX 4K HDR Latino – CMHDD

    Spider-Man 2 (2004) REMUX 4K HDR Latino – CMHDD

    2004
    Spider-Man 2 (2004) REMUX 4K HDR Latino – CMHDD

    2h 7m 2004

    Han pasado dos años desde que el tranquilo Peter Parker dejó a Mary Jane Watson, su gran amor, y decidió...

    Director: Trudy Ramirez

    Género: Acción

    Actores: Zachry Rogers

  • Un Heroe Anonimo (2024) 1080p Latino-CMHDD

    Un Heroe Anonimo (2024) 1080p Latino-CMHDD

    2024
    Un Heroe Anonimo (2024) 1080p Latino-CMHDD

    1h 53m 2024

    Descargar Un Heroe Anonimo (2024) 1080p Latino-CMHDD. Basada en una extraordinaria historia real, la...

    Director: Richard Ramsey

    Género: Drama

    Actores: Vin Morreale Jr

  • Un Heroe Anonimo (2024) Full HD 1080p Latino-CMHDD

    Un Heroe Anonimo (2024) Full HD 1080p Latino-CMHDD

    2024
    Un Heroe Anonimo (2024) Full HD 1080p Latino-CMHDD

    1h 53m 2024

    Descargar Un Heroe Anonimo (2024) Full HD 1080p Latino-CMHDD Basada en una extraordinaria historia real,...

    Director: Richard Ramsey

    Género: Drama

    Actores: Vin Morreale Jr

  • Un Heroe Anonimo (2024) REMUX 1080p Latino-CMHDD

    Un Heroe Anonimo (2024) REMUX 1080p Latino-CMHDD

    2024
    Un Heroe Anonimo (2024) REMUX 1080p Latino-CMHDD

    1h 53m 2024

    Descargar Un Heroe Anonimo (2024) REMUX 1080p Latino-CMHDD. Basada en una extraordinaria historia real,...

    Director: Richard Ramsey

    Género: Drama

    Actores: Vin Morreale Jr

  • Scary Movie 5 (2013) REMUX 1080p Latino – CMHDD

    Scary Movie 5 (2013) REMUX 1080p Latino – CMHDD

    2013
    Scary Movie 5 (2013) REMUX 1080p Latino – CMHDD

    1h 28m 2013

    Los felizmente casados Dan y Jody empiezan a observar algunos fenómenos extraños en su casa tras volver...

    Director: Tim Fitzgerald

    Género: Comedia

    Actores: Zoe Pessin

descargar Last Action Hero (1993) REMUX 1080p Latino – CMHDD Full 1080p 1080p gratis, Last Action Hero (1993) REMUX 1080p Latino – CMHDD Full 1080p mega 1 link, Last Action Hero (1993) REMUX 1080p Latino – CMHDD Full 1080p pelicula completa, descargar Last Action Hero (1993) REMUX 1080p Latino – CMHDD Full 1080p gratis en mega.

Last Action Hero (1993) REMUX 1080p Latino – CMHDD pelicula full hd, Last Action Hero (1993) REMUX 1080p Latino – CMHDD mega latino, Last Action Hero (1993) REMUX 1080p Latino – CMHDD 4k latino, Last Action Hero (1993) REMUX 1080p Latino – CMHDD pelicula completa, Last Action Hero (1993) REMUX 1080p Latino – CMHDD descargar gratis, descargar Last Action Hero (1993) REMUX 1080p Latino – CMHDD pelicula latino, Last Action Hero (1993) REMUX 1080p Latino – CMHDD 1 link mega, Last Action Hero (1993) REMUX 1080p Latino – CMHDD 1 link google drive, Last Action Hero (1993) REMUX 1080p Latino – CMHDD hd 1080p latino.
Comentarios 0