×

¿Problemas para descargar con Mozilla, EDGE? Deshabilita la opción "Abrir vinculos en una pestaña nueva" tal como lo muestra ésta imagen.

Lassie vuelve a casa (2020) REMUX 1080p Latino

132 vistas

Información de Lassie vuelve a casa (2020) REMUX 1080p Latino

Datos de la película

  • Calidad: Full 1080p
  • Audio: Se especifica abajo de la Sinopsis
  • Subtitulos: Español Latino SRT- FORZADOS SRT
  • Resolución: 1920x1080p
  • Formato: MKV
  • Codec: H.264
  • Encoder: Melkor
  • Mediainfo: Clic para Mostrar Datos Ver
  • Lassie Vuelve A Casa (2020) REMUX 1080p Latino.mkv
    Format                      : Matroska
    Format version              : Version 4
    File size                   : 25.1 GiB
    Duration                    : 1 h 36 min
    Overall bit rate mode       : Variable
    Overall bit rate            : 37.3 Mb/s
    Movie name                  : Lassie Eine Abenteurliche Reise (2020) CinemaniaHDD.Net
    Encoded date                : UTC 2021-09-07 06:15:15
    Writing application         : mkvmerge v56.1.0 ('My Friend') 64-bit
    Writing library             : libebml v1.4.2 + libmatroska v1.6.4
    Attachments                 : CINEMANIAHD.png

    Video
    ID                          : 1
    Format                      : AVC
    Format/Info                 : Advanced Video Codec
    Format profile              : High@L4.1
    Format settings             : CABAC / 3 Ref Frames
    Format settings, CABAC      : Yes
    Format settings, Reference  : 3 frames
    Codec ID                    : V_MPEG4/ISO/AVC
    Duration                    : 1 h 36 min
    Bit rate mode               : Variable
    Bit rate                    : 32.9 Mb/s
    Maximum bit rate            : 37.0 Mb/s
    Width                       : 1 920 pixels
    Height                      : 1 080 pixels
    Display aspect ratio        : 16:9
    Frame rate mode             : Constant
    Frame rate                  : 23.976 (24000/1001) FPS
    Color space                 : YUV
    Chroma subsampling          : 4:2:0
    Bit depth                   : 8 bits
    Scan type                   : Progressive
    Bits/(Pixel*Frame)          : 0.662
    Stream size                 : 22.1 GiB (88%)
    Title                       : REMUX HD1080p [CinemaniaHDD]
    Default                     : Yes
    Forced                      : Yes

    Audio #1
    ID                          : 2
    Format                      : AC-3
    Format/Info                 : Audio Coding 3
    Commercial name             : Dolby Digital
    Codec ID                    : A_AC3
    Duration                    : 1 h 36 min
    Bit rate mode               : Constant
    Bit rate                    : 640 kb/s
    Channel(s)                  : 6 channels
    Channel layout              : L R C LFE Ls Rs
    Sampling rate               : 48.0 kHz
    Frame rate                  : 31.250 FPS (1536 SPF)
    Compression mode            : Lossy
    Stream size                 : 441 MiB (2%)
    Title                       : Español Latino [CinemaniaHDD]
    Language                    : Spanish
    Service kind                : Complete Main
    Default                     : Yes
    Forced                      : Yes

    Audio #2
    ID                          : 3
    Format                      : DTS XLL
    Format/Info                 : Digital Theater Systems
    Commercial name             : DTS-HD Master Audio
    Codec ID                    : A_DTS
    Duration                    : 1 h 36 min
    Bit rate mode               : Variable
    Bit rate                    : 3 752 kb/s
    Channel(s)                  : 6 channels
    Channel layout              : C L R Ls Rs LFE
    Sampling rate               : 48.0 kHz
    Frame rate                  : 93.750 FPS (512 SPF)
    Bit depth                   : 24 bits
    Compression mode            : Lossless
    Stream size                 : 2.53 GiB (10%)
    Title                       : Aleman [CinemaniaHDD]
    Language                    : German
    Default                     : No
    Forced                      : No

    Text #1
    ID                          : 4
    Format                      : UTF-8
    Codec ID                    : S_TEXT/UTF8
    Codec ID/Info               : UTF-8 Plain Text
    Duration                    : 1 h 21 min
    Bit rate                    : 0 b/s
    Count of elements           : 19
    Stream size                 : 375 Bytes (0%)
    Title                       : Forzados-SRT [CinemaniaHDD]
    Language                    : Spanish
    Default                     : Yes
    Forced                      : Yes

    Text #2
    ID                          : 5
    Format                      : UTF-8
    Codec ID                    : S_TEXT/UTF8
    Codec ID/Info               : UTF-8 Plain Text
    Duration                    : 1 h 29 min
    Bit rate                    : 44 b/s
    Count of elements           : 977
    Stream size                 : 29.2 KiB (0%)
    Title                       : Español-SRT [CinemaniaHDD]
    Language                    : Spanish
    Default                     : No
    Forced                      : No

    Menu
    00:00:00.000                : Chapter 01
    00:07:57.560                : Chapter 02
    00:14:58.898                : Chapter 03
    00:25:38.411                : Chapter 04
    00:34:07.128                : Chapter 05
    00:41:51.759                : Chapter 06
    00:49:47.693                : Chapter 07
    00:58:28.004                : Chapter 08
    01:07:27.793                : Chapter 09
    01:15:57.052                : Chapter 10
    01:23:46.521                : Chapter 11
    01:30:52.196                : Chapter 12

  • Peso: 25.1 GiB

Sinopsis

Descargar Lassie vuelve a casa (2020) REMUX 1080p Latino. Flo tiene 12 años y Lassie es su mejor amiga. Desde el instante en que tiene memoria, y su leal can han vivido en un pequeño pueblo sosegado en el sur de Alemania. Un día, no obstante, el padre de Florian, Andreas, pierde su trabajo, lo que quiere decir que la familia debe mudarse a un piso más pequeño, donde Lassie ya no puede vivir pues no se dejan perros allá. Prácticamente le rompe el corazón a Flo.

Español Latino AC3 5.1 WebDL – Aleman DTS-HD 5.1 BD

Ficha técnica

Video trailer de la película

Enlaces de descarga

Rip de Bluray

Descargar Lassie vuelve a casa (2020) REMUX 1080p Latino




Aportes de DPeliculasHDmega la pass es:dpeliculashdmega.org Aportes de CinemaniaHD la pass es:cinemaniahdd.com
Guardado en : Aventura , Drama , Familia , Remux

Películas relacionadas

  • Zola (2020) REMUX 1080p Latino

    Zola (2020) REMUX 1080p Latino

    2020
    Zola (2020) REMUX 1080p Latino

    1h 26m 2020

    Descargar Zola (2020) REMUX 1080p Latino. Una camarera accede a acompañar a una bailarina exótica,...

    Director: Sheri Davani

    Género: Comedia

    Actores: Ts Madison

  • Hocus Pocus: Abracadabra (1993) 1080p Latino

    Hocus Pocus: Abracadabra (1993) 1080p Latino

    1993
    Hocus Pocus: Abracadabra (1993) 1080p Latino

    1h 36m 1993

    Descargar Hocus Pocus: Abracadabra (1993) 1080p Latino. Tres brujas del siglo XII son invocadas durante...

    Director: Kenny Ortega

    Género: Comedia

    Actores: Vinessa Shaw

descargar Lassie vuelve a casa (2020) REMUX 1080p Latino Full 1080p 1080p gratis, Lassie vuelve a casa (2020) REMUX 1080p Latino Full 1080p mega 1 link, Lassie vuelve a casa (2020) REMUX 1080p Latino Full 1080p pelicula completa, descargar Lassie vuelve a casa (2020) REMUX 1080p Latino Full 1080p gratis en mega.

Lassie vuelve a casa (2020) REMUX 1080p Latino pelicula full hd, Lassie vuelve a casa (2020) REMUX 1080p Latino mega latino, Lassie vuelve a casa (2020) REMUX 1080p Latino 4k latino, Lassie vuelve a casa (2020) REMUX 1080p Latino pelicula completa, Lassie vuelve a casa (2020) REMUX 1080p Latino descargar gratis, descargar Lassie vuelve a casa (2020) REMUX 1080p Latino pelicula latino, Lassie vuelve a casa (2020) REMUX 1080p Latino 1 link mega, Lassie vuelve a casa (2020) REMUX 1080p Latino 1 link google drive, Lassie vuelve a casa (2020) REMUX 1080p Latino hd 1080p latino.
Comentarios 0