×

¿Problemas para descargar con Mozilla, EDGE? Deshabilita la opción "Abrir vinculos en una pestaña nueva" tal como lo muestra ésta imagen.

Las Puertas del Paraiso (2019) AMZN WEB-DL 1080p Latino

967 vistas

Información de Las Puertas del Paraiso (2019) AMZN WEB-DL 1080p Latino

Datos de la película

  • Calidad: WEBDL
  • Audio: Español Latino AC3 2.0 Capturado- Ingles AC3 5.1 AMAZON
  • Subtitulos: Ingles SRT
  • Resolución: 1920x1080
  • Formato: MKV
  • Codec: H.264
  • Encoder: cinemaniahd
  • Mediainfo: Clic para Mostrar Datos Ver
  • Las Puertas del Paraiso (2019) AMZN WEB-DL 1080p Latino.mkv
    Format                      : Matroska
    Format version              : Version 4
    File size                   : 5.22 GiB
    Duration                    : 1 h 27 min
    Overall bit rate            : 8 518 kb/s
    Movie name                  : Las Puertas del Paraiso (2019) AMZN WEB-DL 1080p Latino
    Encoded date                : UTC 2019-10-08 03:53:42
    Writing application         : mkvmerge v38.0.0 ('The Silent Type') 64-bit
    Writing library             : libebml v1.3.9 + libmatroska v1.5.2

    Video
    ID                          : 1
    Format                      : AVC
    Format/Info                 : Advanced Video Codec
    Format profile              : High@L4
    Format settings             : CABAC / 4 Ref Frames
    Format settings, CABAC      : Yes
    Format settings, ReFrames   : 4 frames
    Codec ID                    : V_MPEG4/ISO/AVC
    Duration                    : 1 h 27 min
    Bit rate mode               : Constant
    Bit rate                    : 8 035 kb/s
    Nominal bit rate            : 10 000 kb/s
    Width                       : 1 920 pixels
    Height                      : 1 080 pixels
    Display aspect ratio        : 16:9
    Frame rate mode             : Constant
    Frame rate                  : 23.976 (24000/1001) FPS
    Color space                 : YUV
    Chroma subsampling          : 4:2:0
    Bit depth                   : 8 bits
    Scan type                   : Progressive
    Bits/(Pixel*Frame)          : 0.162
    Stream size                 : 4.92 GiB (94%)
    Title                       : CinemaniaHDD
    Default                     : Yes
    Forced                      : No
    Color range                 : Limited
    Color primaries             : BT.709
    Transfer characteristics    : BT.709
    Matrix coefficients         : BT.709

    Audio #1
    ID                          : 2
    Format                      : AC-3
    Format/Info                 : Audio Coding 3
    Commercial name             : Dolby Digital
    Codec ID                    : A_AC3
    Duration                    : 1 h 27 min
    Bit rate mode               : Constant
    Bit rate                    : 256 kb/s
    Channel(s)                  : 2 channels
    Channel layout              : L R
    Sampling rate               : 48.0 kHz
    Frame rate                  : 31.250 FPS (1536 SPF)
    Bit depth                   : 16 bits
    Compression mode            : Lossy
    Stream size                 : 161 MiB (3%)
    Title                       : Español latino [CinemaniaHDD]
    Language                    : Spanish
    Service kind                : Complete Main
    Default                     : Yes
    Forced                      : No

    Audio #2
    ID                          : 3
    Format                      : E-AC-3
    Format/Info                 : Enhanced AC-3
    Commercial name             : Dolby Digital Plus
    Codec ID                    : A_EAC3
    Duration                    : 1 h 27 min
    Bit rate mode               : Constant
    Bit rate                    : 224 kb/s
    Channel(s)                  : 2 channels
    Channel layout              : L R
    Sampling rate               : 48.0 kHz
    Frame rate                  : 31.250 FPS (1536 SPF)
    Compression mode            : Lossy
    Stream size                 : 140 MiB (3%)
    Title                       : Inglés [CinemaniaHDD]
    Language                    : English
    Service kind                : Complete Main
    Default                     : No
    Forced                      : No

    Text
    ID                          : 4
    Format                      : UTF-8
    Codec ID                    : S_TEXT/UTF8
    Codec ID/Info               : UTF-8 Plain Text
    Duration                    : 1 h 26 min
    Bit rate                    : 67 b/s
    Count of elements           : 1617
    Stream size                 : 42.8 KiB (0%)
    Title                       : Inglés [CinemaniaHDD]
    Language                    : English
    Default                     : No
    Forced                      : No

     

  • Peso: 5.22 GiB

Sinopsis

La hija de Heaven, Annie, se encuentra huérfana y lisiada. Tras ser llevada a Farthinggale Manor por Tony Tatterton, Annie lamenta por su familia perdida, especialmente por su medio hermano Luke. Sin el cálido brillo del amor de Luke, ella se pierde en las sombras de la desesperación y la enfermera Broadfield la obliga a someterse. Cuando Annie descubre una cabaña escondida en el bosque de Farthinggale, el misterio de su pasado se profundiza. Incluso mientras anhela ver a Luke nuevamente, sus esperanzas y sueños se ven oscurecidos por el siniestro hechizo de Casteel.

Ficha técnica

Video trailer de la película

Enlaces de descarga

Rip de Bluray

Descargar Las Puertas del Paraiso (2019) AMZN WEB-DL 1080p Latino




Aportes de DPeliculasHDmega la pass es:dpeliculashdmega.org Aportes de CinemaniaHD la pass es:cinemaniahdd.com
Guardado en : Drama , Película de TV

Películas relacionadas

descargar Las Puertas del Paraiso (2019) AMZN WEB-DL 1080p Latino WEBDL 1080p gratis, Las Puertas del Paraiso (2019) AMZN WEB-DL 1080p Latino WEBDL mega 1 link, Las Puertas del Paraiso (2019) AMZN WEB-DL 1080p Latino WEBDL pelicula completa, descargar Las Puertas del Paraiso (2019) AMZN WEB-DL 1080p Latino WEBDL gratis en mega.

Las Puertas del Paraiso (2019) AMZN WEB-DL 1080p Latino pelicula full hd, Las Puertas del Paraiso (2019) AMZN WEB-DL 1080p Latino mega latino, Las Puertas del Paraiso (2019) AMZN WEB-DL 1080p Latino 4k latino, Las Puertas del Paraiso (2019) AMZN WEB-DL 1080p Latino pelicula completa, Las Puertas del Paraiso (2019) AMZN WEB-DL 1080p Latino descargar gratis, descargar Las Puertas del Paraiso (2019) AMZN WEB-DL 1080p Latino pelicula latino, Las Puertas del Paraiso (2019) AMZN WEB-DL 1080p Latino 1 link mega, Las Puertas del Paraiso (2019) AMZN WEB-DL 1080p Latino 1 link google drive, Las Puertas del Paraiso (2019) AMZN WEB-DL 1080p Latino hd 1080p latino.
Comentarios 0