×

¿Problemas para descargar con Mozilla, EDGE? Deshabilita la opción "Abrir vinculos en una pestaña nueva" tal como lo muestra ésta imagen.

Las Momias y el anillo perdido (2023) WEB-DL 1080p Latino

416 vistas

Información de Las Momias y el anillo perdido (2023) WEB-DL 1080p Latino

Datos de la película

  • Calidad: WEBDL
  • Audio: Español Latino AC3 5.1 WEB-DL - Ingles AC3 5.1 WEB-DL
  • Subtitulos: Español Latino SRT- FORZADOS SRT
  • Resolución: 1918x820p
  • Formato: MKV
  • Codec: H.264
  • Encoder: Melkor
  • Mediainfo: Clic para Mostrar Datos Ver
  • Las Momias y el anillo perdido (2023) WebDL 1080p Latino.mkv
    Format                      : Matroska
    Format version              : Version 4
    File size                   : 4.47 GiB
    Duration                    : 1 h 28 min
    Overall bit rate            : 7 241 kb/s
    Movie name                  : Mummies (2023) CinemaniaHDD.Net
    Encoded date                : UTC 2023-03-28 16:41:25
    Writing application         : mkvmerge v56.1.0 ('My Friend') 64-bit
    Writing library             : libebml v1.4.2 + libmatroska v1.6.4
    Attachments                 : CINEMANIAHD.png
    Site                        : CinemaniaHDD.Net
    Uploader                    : Melkor

    Video
    ID                          : 1
    Format                      : AVC
    Format/Info                 : Advanced Video Codec
    Format profile              : High@L4
    Format settings             : CABAC / 5 Ref Frames
    Format settings, CABAC      : Yes
    Format settings, Reference  : 5 frames
    Codec ID                    : V_MPEG4/ISO/AVC
    Duration                    : 1 h 28 min
    Bit rate                    : 6 470 kb/s
    Width                       : 1 918 pixels
    Height                      : 820 pixels
    Display aspect ratio        : 2.35:1
    Frame rate mode             : Constant
    Frame rate                  : 23.976 (24000/1001) FPS
    Color space                 : YUV
    Chroma subsampling          : 4:2:0
    Bit depth                   : 8 bits
    Scan type                   : Progressive
    Bits/(Pixel*Frame)          : 0.172
    Stream size                 : 4.00 GiB (89%)
    Title                       : Web HD1080p [CinemaniaHDD]
    Language                    : English
    Default                     : Yes
    Forced                      : Yes
    Color range                 : Limited
    Color primaries             : BT.709
    Transfer characteristics    : BT.709
    Matrix coefficients         : BT.709

    Audio #1
    ID                          : 2
    Format                      : AC-3
    Format/Info                 : Audio Coding 3
    Commercial name             : Dolby Digital
    Codec ID                    : A_AC3
    Duration                    : 1 h 28 min
    Bit rate mode               : Constant
    Bit rate                    : 384 kb/s
    Channel(s)                  : 6 channels
    Channel layout              : L R C LFE Ls Rs
    Sampling rate               : 48.0 kHz
    Frame rate                  : 31.250 FPS (1536 SPF)
    Compression mode            : Lossy
    Stream size                 : 243 MiB (5%)
    Title                       : Español Latino [CinemaniaHDD]
    Language                    : Spanish
    Service kind                : Complete Main
    Default                     : Yes
    Forced                      : Yes

    Audio #2
    ID                          : 3
    Format                      : AC-3
    Format/Info                 : Audio Coding 3
    Commercial name             : Dolby Digital
    Codec ID                    : A_AC3
    Duration                    : 1 h 28 min
    Bit rate mode               : Constant
    Bit rate                    : 384 kb/s
    Channel(s)                  : 6 channels
    Channel layout              : L R C LFE Ls Rs
    Sampling rate               : 48.0 kHz
    Frame rate                  : 31.250 FPS (1536 SPF)
    Compression mode            : Lossy
    Stream size                 : 243 MiB (5%)
    Title                       : Ingles [CinemaniaHDD]
    Language                    : English
    Service kind                : Complete Main
    Default                     : No
    Forced                      : No

    Text #1
    ID                          : 4
    Format                      : UTF-8
    Codec ID                    : S_TEXT/UTF8
    Codec ID/Info               : UTF-8 Plain Text
    Duration                    : 1 h 6 min
    Bit rate                    : 0 b/s
    Count of elements           : 15
    Stream size                 : 367 Bytes (0%)
    Title                       : Forzados-SRT [CinemaniaHDD]
    Language                    : Spanish
    Default                     : Yes
    Forced                      : Yes

    Text #2
    ID                          : 5
    Format                      : UTF-8
    Codec ID                    : S_TEXT/UTF8
    Codec ID/Info               : UTF-8 Plain Text
    Duration                    : 1 h 27 min
    Bit rate                    : 49 b/s
    Count of elements           : 999
    Stream size                 : 31.6 KiB (0%)
    Title                       : Español-SRT [CinemaniaHDD]
    Language                    : Spanish
    Default                     : No
    Forced                      : No

    Text #3
    ID                          : 6
    Format                      : UTF-8
    Codec ID                    : S_TEXT/UTF8
    Codec ID/Info               : UTF-8 Plain Text
    Duration                    : 1 h 27 min
    Bit rate                    : 62 b/s
    Count of elements           : 1466
    Stream size                 : 39.9 KiB (0%)
    Title                       : Ingles-SRT [CinemaniaHDD]
    Language                    : English
    Default                     : No
    Forced                      : No

  • Peso: 4.47 GiB

Sinopsis

Descargar Las Momias y el anillo perdido (2023) WEB-DL 1080p Latino. En las entrañas de la tierra, ¡existe una ciudad de momias! Por mandato imperial, la Princesa Nefer debe casarse con Thut, un ex auriga de carros. Ninguno desea el matrimonio; Nefer porque ansía la libertad, y Thut porque es alérgico al matrimonio. Pero los designios de los dioses son irrevocables: Thut deberá desposar a Nefer y custodiar el anillo real que el Faraón le ha otorgado; si algo le ocurriera a este, Thut perdería los ojos y la lengua. Mientras tanto, en nuestro mundo, Lord Carnaby lleva a cabo una excavación arqueológica y encuentra algo único: ¡un anillo de boda real egipcia! Thut debe ir al mundo de los humanos para recuperarlo. Le acompaña Sekhem, su hermano de 12 años, con su mascota cocodrilo, y Nefer. Juntos vivirán una gran aventura en la moderna Londres y descubrirán algo que no entraba en sus planes: enamorarse.

Ficha técnica

Video trailer de la película

Enlaces de descarga

Rip de Bluray

Descargar Las Momias y el anillo perdido (2023) WEB-DL 1080p Latino




Aportes de DPeliculasHDmega la pass es:dpeliculashdmega.org Aportes de CinemaniaHD la pass es:cinemaniahdd.com Aportes recientes:cinemaniahdd.net
Guardado en : Animación , Comedia , Familia

Películas relacionadas

descargar Las Momias y el anillo perdido (2023) WEB-DL 1080p Latino WEBDL 1080p gratis, Las Momias y el anillo perdido (2023) WEB-DL 1080p Latino WEBDL mega 1 link, Las Momias y el anillo perdido (2023) WEB-DL 1080p Latino WEBDL pelicula completa, descargar Las Momias y el anillo perdido (2023) WEB-DL 1080p Latino WEBDL gratis en mega.

Las Momias y el anillo perdido (2023) WEB-DL 1080p Latino pelicula full hd, Las Momias y el anillo perdido (2023) WEB-DL 1080p Latino mega latino, Las Momias y el anillo perdido (2023) WEB-DL 1080p Latino 4k latino, Las Momias y el anillo perdido (2023) WEB-DL 1080p Latino pelicula completa, Las Momias y el anillo perdido (2023) WEB-DL 1080p Latino descargar gratis, descargar Las Momias y el anillo perdido (2023) WEB-DL 1080p Latino pelicula latino, Las Momias y el anillo perdido (2023) WEB-DL 1080p Latino 1 link mega, Las Momias y el anillo perdido (2023) WEB-DL 1080p Latino 1 link google drive, Las Momias y el anillo perdido (2023) WEB-DL 1080p Latino hd 1080p latino.
Comentarios 0