×

¿Problemas para descargar con Mozilla, EDGE? Deshabilita la opción "Abrir vinculos en una pestaña nueva" tal como lo muestra ésta imagen.

Las Mariposas Negras (2022) Temporada 1 NF WEB-DL 1080p Latino

41 vistas

Información de Las Mariposas Negras (2022) Temporada 1 NF WEB-DL 1080p Latino

Datos de la película

  • Calidad: WEBDL
  • Audio: Se especifica abajo de la Sinopsis
  • Subtitulos: Español Latino SRT- FORZADOS SRT
  • Resolución: 1920x1080p
  • Formato: MKV
  • Codec: H.264
  • Encoder: Melkor
  • Mediainfo: Clic para Mostrar Datos Ver
  • Les papillons noirs S01E01 (2022) NF WEB-DL 1080p Latino.mkv
    Format                      : Matroska
    Format version              : Version 4
    File size                   : 1.70 GiB
    Duration                    : 1 h 0 min
    Overall bit rate mode       : Variable
    Overall bit rate            : 4 061 kb/s
    Movie name                  : Les papillons noirs S01E01 CinemaniaHDD.Net
    Encoded date                : UTC 2022-10-18 03:45:37
    Writing application         : mkvmerge v59.0.0 ('Shining Star') 64-bit
    Writing library             : libebml v1.4.2 + libmatroska v1.6.4
    Attachments                 : CINEMANIAHD.png

    Video
    ID                          : 1
    Format                      : AVC
    Format/Info                 : Advanced Video Codec
    Format profile              : Main@L4
    Format settings             : CABAC / 3 Ref Frames
    Format settings, CABAC      : Yes
    Format settings, Reference  : 3 frames
    Codec ID                    : V_MPEG4/ISO/AVC
    Duration                    : 1 h 0 min
    Bit rate mode               : Variable
    Bit rate                    : 2 778 kb/s
    Nominal bit rate            : 3 650 kb/s
    Maximum bit rate            : 5 475 kb/s
    Width                       : 1 920 pixels
    Height                      : 1 080 pixels
    Display aspect ratio        : 16:9
    Frame rate mode             : Constant
    Frame rate                  : 25.000 FPS
    Color space                 : YUV
    Chroma subsampling          : 4:2:0
    Bit depth                   : 8 bits
    Scan type                   : Progressive
    Bits/(Pixel*Frame)          : 0.054
    Stream size                 : 1.17 GiB (68%)
    Title                       : WEB HD1080p [CinemaniaHDD]
    Writing library             : x264 core 148 r2727 7d026e8
    Encoding settings           : cabac=1 / ref=3 / deblock=1:0:0 / analyse=0x1:0x111 / me=umh / subme=10 / psy=1 / psy_rd=1.00:0.00 / mixed_ref=1 / me_range=24 / chroma_me=1 / trellis=2 / 8x8dct=0 / cqm=0 / deadzone=21,11 / fast_pskip=1 / chroma_qp_offset=-2 / threads=8 / lookahead_threads=1 / sliced_threads=0 / nr=0 / decimate=1 / interlaced=0 / bluray_compat=0 / stitchable=1 / constrained_intra=0 / bframes=2 / b_pyramid=0 / b_adapt=2 / b_bias=0 / direct=3 / weightb=1 / open_gop=0 / weightp=2 / keyint=250 / keyint_min=25 / scenecut=0 / intra_refresh=0 / rc_lookahead=50 / rc=2pass / mbtree=1 / bitrate=3650 / ratetol=1.0 / qcomp=0.50 / qpmin=6 / qpmax=51 / qpstep=4 / cplxblur=20.0 / qblur=0.5 / vbv_maxrate=5475 / vbv_bufsize=7300 / nal_hrd=vbr / filler=0 / ip_ratio=1.40 / aq=1:1.00
    Default                     : Yes
    Forced                      : Yes

    Audio #1
    ID                          : 2
    Format                      : E-AC-3
    Format/Info                 : Enhanced AC-3
    Commercial name             : Dolby Digital Plus
    Codec ID                    : A_EAC3
    Duration                    : 1 h 0 min
    Bit rate mode               : Constant
    Bit rate                    : 640 kb/s
    Channel(s)                  : 6 channels
    Channel layout              : L R C LFE Ls Rs
    Sampling rate               : 48.0 kHz
    Frame rate                  : 31.250 FPS (1536 SPF)
    Compression mode            : Lossy
    Stream size                 : 275 MiB (16%)
    Title                       : Español Latino [CinemaniaHDD]
    Language                    : Spanish
    Service kind                : Complete Main
    Default                     : Yes
    Forced                      : Yes

    Audio #2
    ID                          : 3
    Format                      : E-AC-3
    Format/Info                 : Enhanced AC-3
    Commercial name             : Dolby Digital Plus
    Codec ID                    : A_EAC3
    Duration                    : 1 h 0 min
    Bit rate mode               : Constant
    Bit rate                    : 640 kb/s
    Channel(s)                  : 6 channels
    Channel layout              : L R C LFE Ls Rs
    Sampling rate               : 48.0 kHz
    Frame rate                  : 31.250 FPS (1536 SPF)
    Compression mode            : Lossy
    Stream size                 : 275 MiB (16%)
    Title                       : Frances [CinemaniaHDD]
    Language                    : French
    Service kind                : Complete Main
    Default                     : No
    Forced                      : No

    Text #1
    ID                          : 4
    Format                      : UTF-8
    Codec ID                    : S_TEXT/UTF8
    Codec ID/Info               : UTF-8 Plain Text
    Duration                    : 59 min 15 s
    Bit rate                    : 2 b/s
    Count of elements           : 33
    Stream size                 : 1 003 Bytes (0%)
    Title                       : Forzados-SRT [CinemaniaHDD]
    Language                    : Spanish
    Default                     : Yes
    Forced                      : Yes

    Text #2
    ID                          : 5
    Format                      : UTF-8
    Codec ID                    : S_TEXT/UTF8
    Codec ID/Info               : UTF-8 Plain Text
    Duration                    : 59 min 15 s
    Bit rate                    : 43 b/s
    Count of elements           : 641
    Stream size                 : 19.1 KiB (0%)
    Title                       : Español-SRT [CinemaniaHDD]
    Language                    : Spanish
    Default                     : No
    Forced                      : No

    Text #3
    ID                          : 6
    Format                      : UTF-8
    Codec ID                    : S_TEXT/UTF8
    Codec ID/Info               : UTF-8 Plain Text
    Duration                    : 59 min 17 s
    Bit rate                    : 59 b/s
    Count of elements           : 763
    Stream size                 : 25.9 KiB (0%)
    Title                       : Frances-SRT [CinemaniaHDD]
    Language                    : French
    Default                     : No
    Forced                      : No

  • Peso: 1.7 - 3.5 GiB Aprox. C/U -- 13.6 GiB -- 6 Chapters

Sinopsis

Descargar Las Mariposas Negras (2022) Temporada 1 NF WEB-DL 1080p Latino. Adrien Winckler, de 40 años, es un novelista en apuros que trabaja como escritor fantasma para llegar a fin de mes. En el ocaso de su vida, Albert Desiderio, un humilde jubilado, decide contratar a Adrien para que escriba sus memorias. Pero la increíble historia de amor que Albert compartió con Solange durante los años 70 resulta ser la confesión de una pareja de asesinos en serie. Entre la fascinación y la repulsión, Adrien debe reconocer que esta historia sería una muy buena novela.

Español Latino EAC3 5.1 NF – Frances EAC3 5.1 NF

Ficha técnica

Video trailer de la película

Enlaces de descarga

Rip de Bluray

Descargar Las Mariposas Negras (2022) Temporada 1 NF WEB-DL 1080p Latino




Aportes de DPeliculasHDmega la pass es:dpeliculashdmega.org Aportes de CinemaniaHD la pass es:cinemaniahdd.com
Guardado en : Crimen , Drama , Netflix , Series

Películas relacionadas

descargar Las Mariposas Negras (2022) Temporada 1 NF WEB-DL 1080p Latino WEBDL 1080p gratis, Las Mariposas Negras (2022) Temporada 1 NF WEB-DL 1080p Latino WEBDL mega 1 link, Las Mariposas Negras (2022) Temporada 1 NF WEB-DL 1080p Latino WEBDL serie completa, descargar Las Mariposas Negras (2022) Temporada 1 NF WEB-DL 1080p Latino WEBDL gratis en mega.

Las Mariposas Negras (2022) Temporada 1 NF WEB-DL 1080p Latino pelicula full hd, Las Mariposas Negras (2022) Temporada 1 NF WEB-DL 1080p Latino mega latino, Las Mariposas Negras (2022) Temporada 1 NF WEB-DL 1080p Latino 4k latino, Las Mariposas Negras (2022) Temporada 1 NF WEB-DL 1080p Latino pelicula completa, Las Mariposas Negras (2022) Temporada 1 NF WEB-DL 1080p Latino descargar gratis, descargar Las Mariposas Negras (2022) Temporada 1 NF WEB-DL 1080p Latino pelicula latino, Las Mariposas Negras (2022) Temporada 1 NF WEB-DL 1080p Latino 1 link mega, Las Mariposas Negras (2022) Temporada 1 NF WEB-DL 1080p Latino 1 link google drive, Las Mariposas Negras (2022) Temporada 1 NF WEB-DL 1080p Latino hd 1080p latino.
Comentarios 0