Las locuras de Dick y Jane (2005) [AMZN] WEB-DL 1080p Latino – CMHDD

64 vistas
1 estrella2 estrellas3 estrellas4 estrellas5 estrellas (Ninguna valoración todavía)
Cargando...

Información de Las locuras de Dick y Jane (2005) [AMZN] WEB-DL 1080p Latino – CMHDD

Datos de la película

  • Calidad: WEBDL
  • Audio: Español Latino AC3 5.1 WEB-DL - Ingles AC3 5.1 WEB-DL
  • Subtitulos: Español Latino SRT- FORZADOS SRT
  • Resolución: 1920x1080p
  • Formato: MKV
  • Codec: H.264
  • Encoder: Dracarys
  • Mediainfo: Clic para Mostrar Datos Ver
  • Format                      : Matroska
    Format version              : Version 4
    File size                   : 6.36 GiB
    Duration                    : 1 h 30 min
    Overall bit rate mode       : Variable
    Overall bit rate            : 10.1 Mb/s
    Movie name                  : Las locuras de Dick y Jane (2005) [AMZN] WEB-DL 1080p Latino - CMHDD
    Encoded date                : UTC 2021-02-23 23:59:13
    Writing application         : mkvmerge v51.0.0 ('I Wish') 64-bit
    Writing library             : libebml v1.4.0 + libmatroska v1.6.2

    Video
    ID                          : 1
    Format                      : AVC
    Format/Info                 : Advanced Video Codec
    Format profile              : High@L4
    Format settings             : CABAC / 4 Ref Frames
    Format settings, CABAC      : Yes
    Format settings, Reference  : 4 frames
    Codec ID                    : V_MPEG4/ISO/AVC
    Duration                    : 1 h 30 min
    Bit rate mode               : Variable
    Bit rate                    : 8 987 kb/s
    Maximum bit rate            : 15.0 Mb/s
    Width                       : 1 920 pixels
    Height                      : 1 080 pixels
    Display aspect ratio        : 16:9
    Frame rate mode             : Constant
    Frame rate                  : 23.976 (24000/1001) FPS
    Color space                 : YUV
    Chroma subsampling          : 4:2:0
    Bit depth                   : 8 bits
    Scan type                   : Progressive
    Bits/(Pixel*Frame)          : 0.181
    Stream size                 : 5.67 GiB (89%)
    Writing library             : x264 core 148 r2623 d5b2374
    Encoding settings           : cabac=1 / ref=4 / deblock=1:-1:-1 / analyse=0x3:0x133 / me=umh / subme=9 / psy=1 / psy_rd=1.00:0.15 / mixed_ref=1 / me_range=24 / chroma_me=1 / trellis=2 / 8x8dct=1 / cqm=0 / deadzone=21,11 / fast_pskip=1 / chroma_qp_offset=-3 / threads=34 / lookahead_threads=5 / sliced_threads=0 / nr=150 / decimate=1 / interlaced=0 / bluray_compat=0 / constrained_intra=0 / bframes=8 / b_pyramid=2 / b_adapt=2 / b_bias=0 / direct=3 / weightb=1 / open_gop=0 / weightp=2 / keyint=120 / keyint_min=61 / scenecut=0 / intra_refresh=0 / rc_lookahead=120 / rc=crf / mbtree=1 / crf=18.0 / qcomp=0.60 / qpmin=0 / qpmax=69 / qpstep=4 / vbv_maxrate=15000 / vbv_bufsize=31250 / crf_max=0.0 / nal_hrd=vbr / filler=0 / ip_ratio=1.40 / aq=3:1.00
    Language                    : English
    Default                     : Yes
    Forced                      : No
    Color range                 : Limited
    Color primaries             : BT.709
    Transfer characteristics    : BT.709
    Matrix coefficients         : BT.709

    Audio #1
    ID                          : 2
    Format                      : AC-3
    Format/Info                 : Audio Coding 3
    Commercial name             : Dolby Digital
    Codec ID                    : A_AC3
    Duration                    : 1 h 30 min
    Bit rate mode               : Constant
    Bit rate                    : 448 kb/s
    Channel(s)                  : 6 channels
    Channel layout              : L R C LFE Ls Rs
    Sampling rate               : 48.0 kHz
    Frame rate                  : 31.250 FPS (1536 SPF)
    Compression mode            : Lossy
    Stream size                 : 289 MiB (4%)
    Language                    : Spanish
    Service kind                : Complete Main
    Default                     : Yes
    Forced                      : No

    Audio #2
    ID                          : 3
    Format                      : E-AC-3
    Format/Info                 : Enhanced AC-3
    Commercial name             : Dolby Digital Plus
    Codec ID                    : A_EAC3
    Duration                    : 1 h 30 min
    Bit rate mode               : Constant
    Bit rate                    : 640 kb/s
    Channel(s)                  : 6 channels
    Channel layout              : L R C LFE Ls Rs
    Sampling rate               : 48.0 kHz
    Frame rate                  : 31.250 FPS (1536 SPF)
    Compression mode            : Lossy
    Stream size                 : 413 MiB (6%)
    Language                    : English
    Service kind                : Complete Main
    Default                     : No
    Forced                      : No

    Text
    ID                          : 4
    Format                      : UTF-8
    Codec ID                    : S_TEXT/UTF8
    Codec ID/Info               : UTF-8 Plain Text
    Duration                    : 1 h 23 min
    Bit rate                    : 67 b/s
    Count of elements           : 1204
    Stream size                 : 41.6 KiB (0%)
    Language                    : Spanish
    Default                     : No
    Forced                      : No

    Menu
    00:00:00.000                : en:Studio Logos
    00:00:45.000                : en:Dick's Family Is Introduced, Opening Credits; Multiple Locations
    00:03:06.000                : en:Dick Is Envious of His Neighbor's New Car; Driveway
    00:03:45.000                : en:Dick Is Called Upstairs; Dick's Office
    00:04:42.000                : en:Dick Receives a Promotion; Globodyne
    00:07:53.000                : en:Dick Tells Jane to Quit Her Job; Bedroom
    00:08:52.000                : en:Dick Attends Jack's Brunch; Jack's Estate
    00:10:05.000                : en:Jack Tells Dick to Go on Money Life on Behalf of Globodyne; Jack's House
    00:11:24.000                : en:Jane Fields an Irate Caller; Jane's Office
    00:11:49.000                : en:Dick Gets Grilled on Money Life about Globodyne; TV Studio
    00:14:13.000                : en:Globodyne Is in Chaos; Globodyne
    00:16:49.000                : en:Dick Finds Out Jane Quit and Delivers the Bad News; Harper House
    00:19:10.000                : en:Jane Rushes Out for Motherly Duties; Harper House
    00:19:54.000                : en:Unemployment Is Boring; Harper House
    00:21:32.000                : en:Dick Has Trouble Finding a Job; Harper House
    00:22:12.000                : en:Candidates Race for a Job Cattle Call; Office Building
    00:24:04.000                : en:Gardeners Repossess the Harper Lawn; Harper House
    00:24:39.000                : en:Executives Laugh at Dick; Office
    00:25:38.000                : en:The Harpers Discuss Financial Troubles; Harper House
    00:27:56.000                : en:The Harpers Begin Their First Days at Work; Multiple Locations
    00:29:41.000                : en:The Harpers Have Difficulties at the New Jobs; Multiple Locations
    00:31:23.000                : en:The Harpers Downgrade Their Lifestyles; Multiple Locations
    00:34:27.000                : en:Dick Gets Beat Out by Day Laborer's and Loses His Wallet; Outside
    00:35:29.000                : en:Jane Is a Guinea Pig and Dick Is Deported; Multiple Locations
    00:37:43.000                : en:Jane Helps Dick Escape; Border
    00:39:19.000                : en:Dick Feels Sad about His Family's Situation; Harper House
    00:41:10.000                : en:Dick Steals Chunks from Different Lawns; Multiple Locations
    00:42:32.000                : en:The Harpers Receive a Final Foreclosure Notice; Harper House
    00:44:32.000                : en:Dick Decides to Stop Being Good; Harper House
    00:45:50.000                : en:Dick Tries His Hand at Crime; Convenience Store
    00:48:24.000                : en:Dick Attempts to Rob People; Multiple Locations
    00:50:15.000                : en:Dick and Jane Successfully Commit a Robbery; Head Shop
    00:51:43.000                : en:Dick and Jane Excitedly Flee the Scene; Car
    00:52:39.000                : en:The Harpers Are Getting Good at Robbing; Multiple Locations
    00:55:27.000                : en:Dick and Jane Steal Art from the Laughing Executive; Exec's House
    00:56:57.000                : en:The Harpers Throw a Party; Harper House
    00:57:44.000                : en:The Harpers Attempt to Rob a Bank but Are Met with a Surprise; Bank
    01:00:00.000                : en:The Harpers Watch Disturbing News on TV; Bedroom
    01:02:15.000                : en:Dick Drowns His Sorrows and Runs into Frank; Bar
    01:04:31.000                : en:Frank Tells Dick the Truth; Street
    01:06:12.000                : en:Frank Lays out the Plan to Rob Jack; Multiple Locations
    01:08:29.000                : en:There Is a Hiccup in the Plan; Outside Bank
    01:10:08.000                : en:The Team Carries Out a New Plan; Multiple Locations
    01:14:13.000                : en:Dick and Jane Make the Switch; Grand Cayman Bank
    01:16:20.000                : en:The Plan Backfires and Dick Confronts Jack; Grand Cayman Bank
    01:19:14.000                : en:Dick Devises a New Plan; Grand Cayman Bank
    01:20:35.000                : en:Dick Makes Jack a Generous Man; Jack's House
    01:23:50.000                : en:Garth Tells the Harpers about Enron; Road
    01:24:28.000                : en:End Credits

  • Peso: 6.36 GiB

Sinopsis

Dick Harper, después de años de duro trabajo, es por fin ascendido a vicepresidente en Globodyne, empresa líder a nivel mundial en la consolidación de propiedades de medios de comunicación. Pero, al día siguiente de su nombramiento, un escándalo tipo Enron arruina la empresa. Entonces Dick y su mujer Jane ven horrorizados cómo su lujosa casa, sus ostentosos coches e incluso sus amistades se desvanecen como por arte de magia.

Ficha técnica

Video trailer de la película

Enlaces de descarga

Rip de Bluray

Descargar Las locuras de Dick y Jane (2005) [AMZN] WEB-DL 1080p Latino – CMHDD




Aportes de DPeliculasHDmega la pass es:dpeliculashdmega.org Aportes de CinemaniaHD la pass es:cinemaniahdd.com
Guardado en : Comedia

Películas relacionadas

Las locuras de Dick y Jane (2005) [AMZN] WEB-DL 1080p Latino – CMHDD pelicula full hd, Las locuras de Dick y Jane (2005) [AMZN] WEB-DL 1080p Latino – CMHDD mega latino, Las locuras de Dick y Jane (2005) [AMZN] WEB-DL 1080p Latino – CMHDD 4k latino, Las locuras de Dick y Jane (2005) [AMZN] WEB-DL 1080p Latino – CMHDD pelicula completa, Las locuras de Dick y Jane (2005) [AMZN] WEB-DL 1080p Latino – CMHDD descargar gratis, descargar Las locuras de Dick y Jane (2005) [AMZN] WEB-DL 1080p Latino – CMHDD pelicula latino, Las locuras de Dick y Jane (2005) [AMZN] WEB-DL 1080p Latino – CMHDD 1 link mega, Las locuras de Dick y Jane (2005) [AMZN] WEB-DL 1080p Latino – CMHDD 1 link google drive, Las locuras de Dick y Jane (2005) [AMZN] WEB-DL 1080p Latino – CMHDD hd 1080p latino.
Comentarios 0