×

¿Problemas para descargar con Mozilla, EDGE? Deshabilita la opción "Abrir vinculos en una pestaña nueva" tal como lo muestra ésta imagen.

Las hijas del Reich (2020) REMUX 1080p Latino

191 vistas

Información de Las hijas del Reich (2020) REMUX 1080p Latino

Datos de la película

  • Calidad: Full 1080p
  • Audio: Español Latino AC3 5.1 WEB-DL - Ingles DTS 5.1 BLURAY
  • Subtitulos: Español Latino SRT- FORZADOS SRT
  • Resolución: 1920x1080p
  • Formato: MKV
  • Codec: H.264
  • Encoder: Melkor
  • Mediainfo: Clic para Mostrar Datos Ver
  • Las hijas del Reich (2020) REMUX 1080p Latino.mkv
    Format                      : Matroska
    Format version              : Version 4
    File size                   : 24.0 GiB
    Duration                    : 1 h 39 min
    Overall bit rate mode       : Variable
    Overall bit rate            : 34.5 Mb/s
    Movie name                  : Six Minutes To Midnight (2020) CinemaniaHDD.Net
    Encoded date                : UTC 2022-02-08 02:45:22
    Writing application         : mkvmerge v56.1.0 ('My Friend') 64-bit
    Writing library             : libebml v1.4.2 + libmatroska v1.6.4
    Attachments                 : CINEMANIAHD.png

    Video
    ID                          : 1
    ID in the original source m : 4113 (0x1011)
    Format                      : AVC
    Format/Info                 : Advanced Video Codec
    Format profile              : High@L4.1
    Format settings             : CABAC / 4 Ref Frames
    Format settings, CABAC      : Yes
    Format settings, Reference  : 4 frames
    Format settings, GOP        : M=3, N=24
    Codec ID                    : V_MPEG4/ISO/AVC
    Duration                    : 1 h 39 min
    Bit rate mode               : Constant
    Bit rate                    : 29.9 Mb/s
    Nominal bit rate            : 35.0 Mb/s
    Width                       : 1 920 pixels
    Height                      : 1 080 pixels
    Display aspect ratio        : 16:9
    Frame rate mode             : Constant
    Frame rate                  : 24.000 FPS
    Standard                    : NTSC
    Color space                 : YUV
    Chroma subsampling          : 4:2:0
    Bit depth                   : 8 bits
    Scan type                   : Progressive
    Bits/(Pixel*Frame)          : 0.602
    Stream size                 : 20.8 GiB (87%)
    Title                       : REMUX HD1080p [CinemaniaHDD]
    Default                     : Yes
    Forced                      : Yes
    Color range                 : Limited
    Color primaries             : BT.709
    Transfer characteristics    : BT.709
    Matrix coefficients         : BT.709
    Original source medium      : Blu-ray

    Audio #1
    ID                          : 2
    Format                      : AC-3
    Format/Info                 : Audio Coding 3
    Commercial name             : Dolby Digital
    Codec ID                    : A_AC3
    Duration                    : 1 h 39 min
    Bit rate mode               : Constant
    Bit rate                    : 448 kb/s
    Channel(s)                  : 6 channels
    Channel layout              : L R C LFE Ls Rs
    Sampling rate               : 48.0 kHz
    Frame rate                  : 31.250 FPS (1536 SPF)
    Compression mode            : Lossy
    Stream size                 : 318 MiB (1%)
    Title                       : Español Latino [CinemaniaHDD]
    Language                    : Spanish
    Service kind                : Complete Main
    Default                     : Yes
    Forced                      : Yes

    Audio #2
    ID                          : 3
    ID in the original source m : 4353 (0x1101)
    Format                      : DTS XLL
    Format/Info                 : Digital Theater Systems
    Commercial name             : DTS-HD Master Audio
    Codec ID                    : A_DTS
    Duration                    : 1 h 39 min
    Bit rate mode               : Variable
    Bit rate                    : 4 125 kb/s
    Channel(s)                  : 6 channels
    Channel layout              : C L R Ls Rs LFE
    Sampling rate               : 48.0 kHz
    Frame rate                  : 93.750 FPS (512 SPF)
    Bit depth                   : 24 bits
    Compression mode            : Lossless
    Stream size                 : 2.86 GiB (12%)
    Title                       : Ingles [CinemaniaHDD]
    Language                    : English
    Default                     : No
    Forced                      : No
    Original source medium      : Blu-ray

    Text #1
    ID                          : 4
    Format                      : UTF-8
    Codec ID                    : S_TEXT/UTF8
    Codec ID/Info               : UTF-8 Plain Text
    Duration                    : 1 h 29 min
    Bit rate                    : 5 b/s
    Count of elements           : 129
    Stream size                 : 3.88 KiB (0%)
    Title                       : Forzados-SRT [CinemaniaHDD]
    Language                    : Spanish
    Default                     : Yes
    Forced                      : Yes

    Text #2
    ID                          : 5
    Format                      : UTF-8
    Codec ID                    : S_TEXT/UTF8
    Codec ID/Info               : UTF-8 Plain Text
    Duration                    : 1 h 29 min
    Bit rate                    : 40 b/s
    Count of elements           : 871
    Stream size                 : 26.7 KiB (0%)
    Title                       : Español-SRT [CinemaniaHDD]
    Language                    : Spanish
    Default                     : No
    Forced                      : No

    Text #3
    ID                          : 6
    Format                      : UTF-8
    Codec ID                    : S_TEXT/UTF8
    Codec ID/Info               : UTF-8 Plain Text
    Duration                    : 1 h 28 min
    Bit rate                    : 36 b/s
    Count of elements           : 867
    Stream size                 : 23.7 KiB (0%)
    Title                       : Ingles [CinemaniaHDD]
    Language                    : English
    Default                     : No
    Forced                      : No

    Menu
    00:00:00.000                : Chapter 01
    00:06:18.208                : Chapter 02
    00:15:55.083                : Chapter 03
    00:24:33.583                : Chapter 04
    00:30:56.791                : Chapter 05
    00:42:16.041                : Chapter 06
    00:52:46.416                : Chapter 07
    01:01:24.625                : Chapter 08
    01:09:20.041                : Chapter 09
    01:18:03.333                : Chapter 10
    01:28:05.458                : Chapter 11
    01:30:38.583                : Chapter 12

  • Peso: 24.0 GiB

Sinopsis

Descargar Las hijas del Reich (2020) REMUX 1080p Latino. Verano de 1939. Thomas Miller acaba de aceptar un trabajo, cuanto menos polémico, que consiste en enseñar inglés a las hijas de los altos rangos del ejército Nazi en el Instituto Augusta-Victoria, localizado en la costa sur de Inglaterra. A pesar de la tormenta que se avecina, estas alumnas deben aprender todo sobre Shakespeare, gramática y deporte, con el objetivo de representar todo lo que se desea que represente una mujer alemana. Todo cambia para este grupo cuando un antiguo profesor aparece muerto.

Ficha técnica

  • Titulo original: Six Minutes to Midnight
  • Fecha de lanzamiento: 15-10-2020 (United Kingdom)
  • Director: Andy Goddard
  • Género: Remux, Suspenso

Video trailer de la película

Enlaces de descarga

Rip de Bluray

Descargar Las hijas del Reich (2020) REMUX 1080p Latino




Aportes de DPeliculasHDmega la pass es:dpeliculashdmega.org Aportes de CinemaniaHD la pass es:cinemaniahdd.com
Guardado en : Remux , Suspenso

Películas relacionadas

descargar Las hijas del Reich (2020) REMUX 1080p Latino Full 1080p 1080p gratis, Las hijas del Reich (2020) REMUX 1080p Latino Full 1080p mega 1 link, Las hijas del Reich (2020) REMUX 1080p Latino Full 1080p pelicula completa, descargar Las hijas del Reich (2020) REMUX 1080p Latino Full 1080p gratis en mega.

Las hijas del Reich (2020) REMUX 1080p Latino pelicula full hd, Las hijas del Reich (2020) REMUX 1080p Latino mega latino, Las hijas del Reich (2020) REMUX 1080p Latino 4k latino, Las hijas del Reich (2020) REMUX 1080p Latino pelicula completa, Las hijas del Reich (2020) REMUX 1080p Latino descargar gratis, descargar Las hijas del Reich (2020) REMUX 1080p Latino pelicula latino, Las hijas del Reich (2020) REMUX 1080p Latino 1 link mega, Las hijas del Reich (2020) REMUX 1080p Latino 1 link google drive, Las hijas del Reich (2020) REMUX 1080p Latino hd 1080p latino.
Comentarios 0