Las hijas de Abril (2017) 1080p Latino

2.220 vistas
1 estrella2 estrellas3 estrellas4 estrellas5 estrellas (1 votos, promedio: 5,00 de 5)
Cargando…

Información de Las hijas de Abril (2017) 1080p Latino

Datos de la película

  • Calidad: 1080p
  • Audio: Español AC3 5.1 BLURAY
  • Subtitulos: No
  • Resolución: 1920x1040
  • Formato: MKV
  • Codec: H.264
  • Encoder: Dpelis
  • Mediainfo: Clic para Mostrar Datos Ver
  • Las Hijas de Abril (2017) 1080p Latino.mkv
    Format                      : Matroska
    Format version              : Version 4 / Version 2
    File size                   : 2.75 GiB
    Duration                    : 1 h 42 min
    Overall bit rate            : 3 841 kb/s
    Movie name                  : DPeliculasHDMega.ORG
    Encoded date                : UTC 2017-10-05 23:56:24 / UTC 2017-10-05T05:07:05Z
    Writing application         : mkvmerge v10.0.0 ('To Drown In You') 64bit
    Writing library             : libebml v1.3.4 + libmatroska v1.4.5 / Lavf57.7.2

    Video
    ID                          : 1
    Format                      : AVC
    Format/Info                 : Advanced Video Codec
    Format profile              : [email protected]
    Format settings, CABAC      : Yes
    Format settings, RefFrames  : 4 frames
    Codec ID                    : V_MPEG4/ISO/AVC
    Duration                    : 1 h 42 min
    Bit rate                    : 3 500 kb/s
    Width                       : 1 920 pixels
    Height                      : 1 040 pixels
    Display aspect ratio        : 1.85:1
    Frame rate mode             : Constant
    Frame rate                  : 23.976 (24000/1001) FPS
    Color space                 : YUV
    Chroma subsampling          : 4:2:0
    Bit depth                   : 8 bits
    Scan type                   : Progressive
    Bits/(Pixel*Frame)          : 0.073
    Stream size                 : 2.42 GiB (88%)
    Writing library             : x264 core 148 r2708 86b7198
    Encoding settings           : cabac=1 / ref=4 / deblock=1:0:0 / analyse=0x3:0x113 / me=umh / subme=8 / psy=1 / psy_rd=1.00:0.00 / mixed_ref=1 / me_range=16 / chroma_me=1 / trellis=1 / 8x8dct=1 / cqm=0 / deadzone=21,11 / fast_pskip=1 / chroma_qp_offset=-2 / threads=12 / lookahead_threads=2 / sliced_threads=0 / nr=0 / decimate=1 / interlaced=0 / bluray_compat=0 / constrained_intra=0 / bframes=3 / b_pyramid=2 / b_adapt=2 / b_bias=0 / direct=3 / weightb=1 / open_gop=0 / weightp=2 / keyint=240 / keyint_min=24 / scenecut=40 / intra_refresh=0 / rc_lookahead=50 / rc=abr / mbtree=1 / bitrate=3500 / ratetol=1.0 / qcomp=0.60 / qpmin=0 / qpmax=69 / qpstep=4 / vbv_maxrate=62500 / vbv_bufsize=78125 / nal_hrd=none / filler=0 / ip_ratio=1.40 / aq=1:1.00
    Default                     : Yes
    Forced                      : No
    Color range                 : Limited
    Color primaries             : BT.709
    Transfer characteristics    : BT.709
    Matrix coefficients         : BT.709
    Statistics Tags Issue       : mkvmerge v10.0.0 ('To Drown In You') 64bit 2017-10-05 23:56:24 / mkvmerge v10.0.0 ('To Drown In You') 64bit 2017-10-05 23:56:24 / UTC 2017-10-05T05:07:05Z
    FromStats_BitRate           : 3455120
    FromStats_Duration          : 01:42:24.806000000
    FromStats_FrameCount        : 147328
    FromStats_StreamSize        : 2653880824

    Audio
    ID                          : 2
    Format                      : AC-3
    Format/Info                 : Audio Coding 3
    Format settings, Endianness : Big
    Codec ID                    : A_AC3
    Duration                    : 1 h 42 min
    Bit rate mode               : Constant
    Bit rate                    : 384 kb/s
    Channel(s)                  : 6 channels
    Channel positions           : Front: L C R, Side: L R, LFE
    Sampling rate               : 48.0 kHz
    Frame rate                  : 31.250 FPS (1536 SPF)
    Bit depth                   : 16 bits
    Compression mode            : Lossy
    Stream size                 : 281 MiB (10%)
    Title                       : Surround
    Service kind                : Complete Main
    Default                     : Yes
    Forced                      : No
    Statistics Tags Issue       : mkvmerge v10.0.0 ('To Drown In You') 64bit 2017-10-05 23:56:24 / mkvmerge v10.0.0 ('To Drown In You') 64bit 2017-10-05 23:56:24 / UTC 2017-10-05T05:07:05Z
    FromStats_BitRate           : 384000
    FromStats_Duration          : 01:42:24.864000000
    FromStats_FrameCount        : 192027
    FromStats_StreamSize        : 294953472

    Menu
    00:00:00.000                : :Chapter 1
    00:07:53.014                : :Chapter 2
    00:17:15.076                : :Chapter 3
    00:26:25.042                : :Chapter 4
    00:33:23.835                : :Chapter 5
    00:42:09.444                : :Chapter 6
    00:50:40.204                : :Chapter 7
    00:59:50.796                : :Chapter 8
    01:09:46.974                : :Chapter 9
    01:18:53.771                : :Chapter 10
    01:26:53.083                : :Chapter 11
    01:34:51.102                : :Chapter 12

  • Peso: 2.75 GB

Sinopsis

Valeria tiene 17 años y está embarazada. Vive en Puerto Vallarta con Clara, su media hermana. Valeria no ha querido que su madre, ausente durante mucho tiempo, se enterara de su embarazo, pero debido a la tensión económica y la abrumadora responsabilidad de tener un bebé en la casa, Clara decide llamar a su madre. Llega April, dispuesta a sus hijas, pero pronto entendemos por qué Valeria había querido que se mantuviera alejada

Ficha técnica

  • Titulo original: Las hijas de Abril
  • Fecha de lanzamiento: 26-07-2017 (Mexico)
  • Director: Michel Franco
  • Género: Drama
  • Puntuación: 5.0 1 votos
  • Duración:
    1h 42m

Video trailer de la película

Enlaces de descarga

Rip de Bluray

Descargar Las hijas de Abril (2017) 1080p Latino




Aportes de DPeliculasHDmega la pass es:dpeliculashdmega.org Aportes de CinemaniaHD la pass es:cinemaniahdd.com
Guardado en : Drama

Películas relacionadas

  • The Punisher (2019) Temporada 2 NF 1080p Latino

    2017
    The Punisher (2019) Temporada 2 NF 1080p Latino

    5.0 0h 53m 2017

    Por ahora, Netflix no ha revelado el contenido de la temporada 2 de "The Punisher", ya que lo único...

    Director: Steve Lightfoot

    Género: Action & Adventure

    Actores: Josh Stewart

  • La buena esposa (2017) Web-DL 1080p Latino

    2018
    La buena esposa (2017) Web-DL 1080p Latino

    0.0 1h 40m 2018

    Descargar La buena esposa (2017) Web-DL 1080p Latino, Mega, Google Drive, Torrent. Joan Castleman (Glenn...

    Director: Björn Runge

    Género: Drama

    Actores: Twinnie Lee Moore

  • Peloton (1986) Full 1080p Latino

    1986
    Peloton (1986) Full 1080p Latino

    0.0 2h 0m 1986

    Descargar Peloton (1986) Full 1080p Latino, Mega, Google Drive, Torrent. Chris Taylor es un ingenuo joven...

    Director: Tim Minear

    Género: Acción

    Actores: Willem Dafoe

  • Boy Erased (2018) HD 1080p Latino

    2018
    Boy Erased (2018) HD 1080p Latino

    0.0 1h 54m 2018

    Descargar Boy Erased (2018) HD 1080p Latino, Mega, Google Drive, Torrent. La historia se centra en el...

    Director: Joel Edgerton

    Género: Drama

    Actores: Xavier Dolan

  • Indivisible (2018) HD Español Latino

    2018
    Indivisible (2018) HD Español Latino

    0.0 2h 0m 2018

    'Indivisible' narra la extraordinaria historia real del capellán del ejército Darren Turner y su esposa...

    Director: David G. Evans

    Género: Bélica

    Actores: Tia Mowry

Comentarios 0