×

¿Problemas para descargar con Mozilla, EDGE? Deshabilita la opción "Abrir vinculos en una pestaña nueva" tal como lo muestra ésta imagen.

Las furias (2020) WEB-DL 1080p Latino

247 vistas

Información de Las furias (2020) WEB-DL 1080p Latino

Datos de la película

  • Calidad: WEBDL
  • Audio: Español Latino AC3 2.0
  • Subtitulos: No
  • Resolución: 1920x1080
  • Formato: MKV
  • Codec: H.264
  • Encoder: cinemaniahdd
  • Mediainfo: Clic para Mostrar Datos Ver
  • Las Furias (2020) WEB-DL 1080p Latino [CNMNHDD].mkv
    Format                      : Matroska
    Format version              : Version 4
    File size                   : 3.04 GiB
    Duration                    : 1 h 11 min
    Overall bit rate mode       : Constant
    Overall bit rate            : 6 076 kb/s
    Movie name                  : Las Furias (2020) - CinemaniaHDD.Net
    Encoded date                : UTC 2020-08-26 22:34:40
    Writing application         : mkvmerge v46.0.0 ('No Deeper Escape') 64-bit
    Writing library             : libebml v1.3.10 + libmatroska v1.5.2

    Video
    ID                          : 1
    Format                      : AVC
    Format/Info                 : Advanced Video Codec
    Format profile              : Main@L4.1
    Format settings             : CABAC / 3 Ref Frames
    Format settings, CABAC      : Yes
    Format settings, Reference  : 3 frames
    Codec ID                    : V_MPEG4/ISO/AVC
    Duration                    : 1 h 11 min
    Bit rate mode               : Constant
    Bit rate                    : 6 000 kb/s
    Width                       : 1 920 pixels
    Height                      : 1 080 pixels
    Display aspect ratio        : 16:9
    Frame rate mode             : Constant
    Frame rate                  : 29.970 (30000/1001) FPS
    Color space                 : YUV
    Chroma subsampling          : 4:2:0
    Bit depth                   : 8 bits
    Scan type                   : Progressive
    Bits/(Pixel*Frame)          : 0.097
    Stream size                 : 2.91 GiB (96%)
    Title                       : CinemaniaHDD
    Language                    : Spanish
    Default                     : Yes
    Forced                      : No

    Audio
    ID                          : 2
    Format                      : AC-3
    Format/Info                 : Audio Coding 3
    Commercial name             : Dolby Digital
    Codec ID                    : A_AC3
    Duration                    : 1 h 11 min
    Bit rate mode               : Constant
    Bit rate                    : 256 kb/s
    Channel(s)                  : 2 channels
    Channel layout              : L R
    Sampling rate               : 48.0 kHz
    Frame rate                  : 31.250 FPS (1536 SPF)
    Compression mode            : Lossy
    Stream size                 : 131 MiB (4%)
    Title                       : Español latino [CinemaniaHDD]
    Language                    : Spanish
    Service kind                : Complete Main
    Default                     : Yes
    Forced                      : No

     

  • Peso: 3.04 GiB

Sinopsis

Es la historia de Leónidas, un joven huarpe destinado a ser jefe de su comunidad, y Lourdes, una joven sometida por el abuso de su padre. Ellos se enamoran confrontándose a los mandatos familiares, pero un cruel asesinato logra el objetivo de separarlos. Para acabar con su trágico destino de dolor, la venganza es inevitable.

Ficha técnica

Video trailer de la película

Enlaces de descarga

Rip de Bluray

Descargar Las furias (2020) WEB-DL 1080p Latino




Aportes de DPeliculasHDmega la pass es:dpeliculashdmega.org Aportes de CinemaniaHD la pass es:cinemaniahdd.com
Guardado en : Suspenso , Terror , Western

Películas relacionadas

descargar Las furias (2020) WEB-DL 1080p Latino WEBDL 1080p gratis, Las furias (2020) WEB-DL 1080p Latino WEBDL mega 1 link, Las furias (2020) WEB-DL 1080p Latino WEBDL pelicula completa, descargar Las furias (2020) WEB-DL 1080p Latino WEBDL gratis en mega.

Las furias (2020) WEB-DL 1080p Latino pelicula full hd, Las furias (2020) WEB-DL 1080p Latino mega latino, Las furias (2020) WEB-DL 1080p Latino 4k latino, Las furias (2020) WEB-DL 1080p Latino pelicula completa, Las furias (2020) WEB-DL 1080p Latino descargar gratis, descargar Las furias (2020) WEB-DL 1080p Latino pelicula latino, Las furias (2020) WEB-DL 1080p Latino 1 link mega, Las furias (2020) WEB-DL 1080p Latino 1 link google drive, Las furias (2020) WEB-DL 1080p Latino hd 1080p latino.
Comentarios 0