×

¿Problemas para descargar con Mozilla, EDGE? Deshabilita la opción "Abrir vinculos en una pestaña nueva" tal como lo muestra ésta imagen.

Las crónicas de Narnia la travesía del Viajero del Alba (2010) REMUX 1080p Latino

373 vistas

Información de Las crónicas de Narnia la travesía del Viajero del Alba (2010) REMUX 1080p Latino

Datos de la película

  • Calidad: Full 1080p
  • Audio: Español Latino AC3 5.1 BLURAY - Ingles DTS 5.1 BLURAY
  • Subtitulos: Español Latino SRT
  • Resolución: 1920x1080p
  • Formato: MKV
  • Codec: H.264
  • Encoder: Dracarys
  • Mediainfo: Clic para Mostrar Datos Ver
  • Format                      : Matroska
    Format version              : Version 4
    File size                   : 22.9 GiB
    Duration                    : 1 h 52 min
    Overall bit rate mode       : Variable
    Overall bit rate            : 29.0 Mb/s
    Movie name                  : Las crónicas de Narnia la travesía del Viajero del Alba (2010) REMUX 1080p Latino
    Encoded date                : UTC 2020-06-07 00:07:21
    Writing application         : mkvmerge v46.0.0 ('No Deeper Escape') 64-bit
    Writing library             : libebml v1.3.10 + libmatroska v1.5.2

    Video
    ID                          : 1
    Format                      : AVC
    Format/Info                 : Advanced Video Codec
    Format profile              : High@L4.1
    Format settings             : CABAC / 2 Ref Frames
    Format settings, CABAC      : Yes
    Format settings, Reference  : 2 frames
    Codec ID                    : V_MPEG4/ISO/AVC
    Duration                    : 1 h 52 min
    Bit rate mode               : Variable
    Bit rate                    : 24.6 Mb/s
    Width                       : 1 920 pixels
    Height                      : 1 080 pixels
    Display aspect ratio        : 16:9
    Frame rate mode             : Constant
    Frame rate                  : 23.976 (24000/1001) FPS
    Color space                 : YUV
    Chroma subsampling          : 4:2:0
    Bit depth                   : 8 bits
    Scan type                   : Progressive
    Bits/(Pixel*Frame)          : 0.495
    Stream size                 : 19.4 GiB (85%)
    Default                     : Yes
    Forced                      : No

    Audio #1
    ID                          : 2
    Format                      : AC-3
    Format/Info                 : Audio Coding 3
    Commercial name             : Dolby Digital
    Codec ID                    : A_AC3
    Duration                    : 1 h 52 min
    Bit rate mode               : Constant
    Bit rate                    : 448 kb/s
    Channel(s)                  : 6 channels
    Channel layout              : L R C LFE Ls Rs
    Sampling rate               : 48.0 kHz
    Frame rate                  : 31.250 FPS (1536 SPF)
    Compression mode            : Lossy
    Stream size                 : 361 MiB (2%)
    Language                    : Spanish
    Service kind                : Complete Main
    Default                     : Yes
    Forced                      : No

    Audio #2
    ID                          : 3
    Format                      : DTS XLL
    Format/Info                 : Digital Theater Systems
    Commercial name             : DTS-HD Master Audio
    Codec ID                    : A_DTS
    Duration                    : 1 h 52 min
    Bit rate mode               : Variable
    Bit rate                    : 3 982 kb/s
    Channel(s)                  : 6 channels
    Channel layout              : C L R Ls Rs LFE
    Sampling rate               : 48.0 kHz
    Frame rate                  : 93.750 FPS (512 SPF)
    Bit depth                   : 24 bits
    Compression mode            : Lossless
    Stream size                 : 3.13 GiB (14%)
    Language                    : English
    Default                     : No
    Forced                      : No

    Text #1
    ID                          : 4
    Format                      : PGS
    Muxing mode                 : zlib
    Codec ID                    : S_HDMV/PGS
    Codec ID/Info               : Picture based subtitle format used on BDs/HD-DVDs
    Duration                    : 1 h 51 min
    Bit rate                    : 23.3 kb/s
    Count of elements           : 2572
    Stream size                 : 18.6 MiB (0%)
    Language                    : Spanish
    Default                     : No
    Forced                      : No

    Text #2
    ID                          : 5
    Format                      : UTF-8
    Codec ID                    : S_TEXT/UTF8
    Codec ID/Info               : UTF-8 Plain Text
    Duration                    : 1 h 51 min
    Bit rate                    : 39 b/s
    Count of elements           : 1286
    Stream size                 : 32.6 KiB (0%)
    Language                    : Spanish
    Default                     : No
    Forced                      : No

  • Peso: 22.9 GiB

Sinopsis

Tercera entrega de la saga literaria creada por C.S. Lewis. En esta ocasión, los hermanos Edmund y Lucy Pevensie y su primo Eustace embarcan en la nave «El Viajero del Alba» para buscar a los siete caballeros que han sido expulsados del reino por Miraz, el usurpador del trono de Narnia.

Ficha técnica

Video trailer de la película

Enlaces de descarga

Rip de Bluray

Descargar Las crónicas de Narnia la travesía del Viajero del Alba (2010) REMUX 1080p Latino




Aportes de DPeliculasHDmega la pass es:dpeliculashdmega.org Aportes de CinemaniaHD la pass es:cinemaniahdd.com
Guardado en : Aventura , Familia , Fantasía , Remux

Películas relacionadas

descargar Las crónicas de Narnia la travesía del Viajero del Alba (2010) REMUX 1080p Latino Full 1080p 1080p gratis, Las crónicas de Narnia la travesía del Viajero del Alba (2010) REMUX 1080p Latino Full 1080p mega 1 link, Las crónicas de Narnia la travesía del Viajero del Alba (2010) REMUX 1080p Latino Full 1080p pelicula completa, descargar Las crónicas de Narnia la travesía del Viajero del Alba (2010) REMUX 1080p Latino Full 1080p gratis en mega.

Las crónicas de Narnia la travesía del Viajero del Alba (2010) REMUX 1080p Latino pelicula full hd, Las crónicas de Narnia la travesía del Viajero del Alba (2010) REMUX 1080p Latino mega latino, Las crónicas de Narnia la travesía del Viajero del Alba (2010) REMUX 1080p Latino 4k latino, Las crónicas de Narnia la travesía del Viajero del Alba (2010) REMUX 1080p Latino pelicula completa, Las crónicas de Narnia la travesía del Viajero del Alba (2010) REMUX 1080p Latino descargar gratis, descargar Las crónicas de Narnia la travesía del Viajero del Alba (2010) REMUX 1080p Latino pelicula latino, Las crónicas de Narnia la travesía del Viajero del Alba (2010) REMUX 1080p Latino 1 link mega, Las crónicas de Narnia la travesía del Viajero del Alba (2010) REMUX 1080p Latino 1 link google drive, Las crónicas de Narnia la travesía del Viajero del Alba (2010) REMUX 1080p Latino hd 1080p latino.
Comentarios 0