×

¿Problemas para descargar con Mozilla, EDGE? Deshabilita la opción "Abrir vinculos en una pestaña nueva" tal como lo muestra ésta imagen.

Las Crónicas de Narnia El Príncipe Caspian (2008) HD 1080p Latino – CMHDD

371 vistas

Información de Las Crónicas de Narnia El Príncipe Caspian (2008) HD 1080p Latino – CMHDD

Datos de la película

  • Calidad: 1080p
  • Audio: Español Latino AC3 5.1 BLURAY - Ingles AC3 5.1 BLURAY
  • Subtitulos: Español Latino SRT- FORZADOS SRT
  • Resolución: 1920x800p
  • Formato: MKV
  • Codec: H.264
  • Encoder: Dracarys
  • Mediainfo: Clic para Mostrar Datos Ver
  • Format                      : Matroska
    Format version              : Version 4
    File size                   : 4.93 GiB
    Duration                    : 2 h 29 min
    Overall bit rate            : 4 707 kb/s
    Movie name                  : Las Crónicas de Narnia El Príncipe Caspian (2008) HD 1080p Latino - CMHDD
    Encoded date                : UTC 2020-06-06 23:49:04
    Writing application         : mkvmerge v46.0.0 ('No Deeper Escape') 64-bit
    Writing library             : libebml v1.3.10 + libmatroska v1.5.2

    Video
    ID                          : 1
    Format                      : AVC
    Format/Info                 : Advanced Video Codec
    Format profile              : High@L4.1
    Format settings             : CABAC / 5 Ref Frames
    Format settings, CABAC      : Yes
    Format settings, Reference  : 5 frames
    Codec ID                    : V_MPEG4/ISO/AVC
    Duration                    : 2 h 29 min
    Bit rate                    : 3 500 kb/s
    Width                       : 1 920 pixels
    Height                      : 800 pixels
    Display aspect ratio        : 2.40:1
    Frame rate mode             : Constant
    Frame rate                  : 23.976 (24000/1001) FPS
    Color space                 : YUV
    Chroma subsampling          : 4:2:0
    Bit depth                   : 8 bits
    Scan type                   : Progressive
    Bits/(Pixel*Frame)          : 0.095
    Stream size                 : 3.59 GiB (73%)
    Writing library             : x264 core 157 r2935 545de2f
    Encoding settings           : cabac=1 / ref=5 / deblock=1:0:0 / analyse=0x3:0x113 / me=hex / subme=8 / psy=1 / psy_rd=1.00:0.00 / mixed_ref=1 / me_range=16 / chroma_me=1 / trellis=2 / 8x8dct=1 / cqm=0 / deadzone=21,11 / fast_pskip=1 / chroma_qp_offset=-2 / threads=24 / lookahead_threads=4 / sliced_threads=0 / nr=0 / decimate=1 / interlaced=0 / bluray_compat=0 / constrained_intra=0 / bframes=3 / b_pyramid=2 / b_adapt=1 / b_bias=0 / direct=3 / weightb=1 / open_gop=0 / weightp=2 / keyint=240 / keyint_min=24 / scenecut=40 / intra_refresh=0 / rc_lookahead=50 / rc=abr / mbtree=1 / bitrate=3500 / ratetol=1.0 / qcomp=0.60 / qpmin=0 / qpmax=69 / qpstep=4 / vbv_maxrate=62500 / vbv_bufsize=78125 / nal_hrd=none / filler=0 / ip_ratio=1.40 / aq=1:1.00
    Default                     : Yes
    Forced                      : No
    Color range                 : Limited
    Color primaries             : BT.709
    Transfer characteristics    : BT.709
    Matrix coefficients         : BT.709

    Audio #1
    ID                          : 2
    Format                      : AC-3
    Format/Info                 : Audio Coding 3
    Commercial name             : Dolby Digital
    Codec ID                    : A_AC3
    Duration                    : 2 h 29 min
    Bit rate mode               : Constant
    Bit rate                    : 640 kb/s
    Channel(s)                  : 6 channels
    Channel layout              : L R C LFE Ls Rs
    Sampling rate               : 48.0 kHz
    Frame rate                  : 31.250 FPS (1536 SPF)
    Compression mode            : Lossy
    Delay relative to video     : -5 ms
    Stream size                 : 687 MiB (14%)
    Language                    : Spanish
    Service kind                : Complete Main
    Default                     : Yes
    Forced                      : No

    Audio #2
    ID                          : 3
    Format                      : AC-3
    Format/Info                 : Audio Coding 3
    Commercial name             : Dolby Digital
    Codec ID                    : A_AC3
    Duration                    : 2 h 29 min
    Bit rate mode               : Constant
    Bit rate                    : 640 kb/s
    Channel(s)                  : 6 channels
    Channel layout              : L R C LFE Ls Rs
    Sampling rate               : 48.0 kHz
    Frame rate                  : 31.250 FPS (1536 SPF)
    Compression mode            : Lossy
    Delay relative to video     : -5 ms
    Stream size                 : 687 MiB (14%)
    Language                    : English
    Service kind                : Complete Main
    Default                     : No
    Forced                      : No

    Text #1
    ID                          : 4
    Format                      : UTF-8
    Codec ID                    : S_TEXT/UTF8
    Codec ID/Info               : UTF-8 Plain Text
    Duration                    : 51 min 22 s
    Bit rate                    : 0 b/s
    Count of elements           : 4
    Stream size                 : 126 Bytes (0%)
    Title                       : Forzados
    Language                    : Spanish
    Default                     : Yes
    Forced                      : Yes

    Text #2
    ID                          : 5
    Format                      : UTF-8
    Codec ID                    : S_TEXT/UTF8
    Codec ID/Info               : UTF-8 Plain Text
    Duration                    : 2 h 16 min
    Bit rate                    : 28 b/s
    Count of elements           : 906
    Stream size                 : 28.4 KiB (0%)
    Language                    : Spanish
    Default                     : No
    Forced                      : No

    Menu
    00:00:00.000                : :Chapter 1
    00:08:32.512                : :Chapter 2
    00:15:51.284                : :Chapter 3
    00:19:54.568                : :Chapter 4
    00:27:04.414                : :Chapter 5
    00:32:57.476                : :Chapter 6
    00:43:08.920                : :Chapter 7
    00:46:19.777                : :Chapter 8
    00:56:13.036                : :Chapter 9
    01:01:00.198                : :Chapter 10
    01:04:50.845                : :Chapter 11
    01:21:40.104                : :Chapter 12
    01:24:03.497                : :Chapter 13
    01:25:20.115                : :Chapter 14
    01:33:54.879                : :Chapter 15
    01:39:12.613                : :Chapter 16
    01:51:48.869                : :Chapter 17
    01:58:46.953                : :Chapter 18
    02:03:54.344                : :Chapter 19
    02:06:27.747                : :Chapter 20
    02:11:15.451                : :Chapter 21
    02:17:46.383                : :Chapter 22

  • Peso: 4.93 GiB

Sinopsis

Un año después de los increíbles acontecimientos de «El León, la Bruja y el Armario», los reyes y las reinas de Narnia -los 4 hermanos Pevensie- vuelven a reunirse en ese remoto y fantástico mundo, donde descubrirán que han pasado más de 1.300 años, calculados en tiempo narniano. Durante su ausencia, la Edad de Oro de Narnia ha terminado, y los Telmarinos han conquistado el reino de Narnia, que ahora está dominado por el malvado Rey Miraz. Los cuatro niños no tardarán en conocer un nuevo y extraño personaje: el joven Príncipe Caspian, heredero legítimo al trono que se ha visto obligado a esconderse ya que su tío Miraz trama su asesinato para colocar a su hijo recién nacido en el trono. Los Narnianos, liderados por los poderosos caballeros Peter y Caspian, se embarcan en un extraordinario viaje para encontrar a Aslan, liberar Narnia del yugo tiránico de Miraz y restaurar la magia y la paz en el territorio.

Ficha técnica

Video trailer de la película

Enlaces de descarga

Rip de Bluray

Descargar Las Crónicas de Narnia El Príncipe Caspian (2008) HD 1080p Latino – CMHDD




Aportes de DPeliculasHDmega la pass es:dpeliculashdmega.org Aportes de CinemaniaHD la pass es:cinemaniahdd.com
Guardado en : Aventura , Familia , Fantasía , HD 1080p

Películas relacionadas

  • Zola (2020) HD 1080p Latino

    Zola (2020) HD 1080p Latino

    2020
    Zola (2020) HD 1080p Latino

    1h 26m 2020

    Descargar Zola (2020) HD 1080p Latino. Una camarera accede a acompañar a una bailarina exótica, su...

    Director: Sheri Davani

    Género: Comedia

    Actores: Ts Madison

  • Hocus Pocus: Abracadabra (1993) 1080p Latino

    Hocus Pocus: Abracadabra (1993) 1080p Latino

    1993
    Hocus Pocus: Abracadabra (1993) 1080p Latino

    1h 36m 1993

    Descargar Hocus Pocus: Abracadabra (1993) 1080p Latino. Tres brujas del siglo XII son invocadas durante...

    Director: Kenny Ortega

    Género: Comedia

    Actores: Vinessa Shaw

  • Hocus Pocus: Abracadabra (1993) REMUX 1080p Latino

    Hocus Pocus: Abracadabra (1993) REMUX 1080p Latino

    1993
    Hocus Pocus: Abracadabra (1993) REMUX 1080p Latino

    1h 36m 1993

    Descargar Hocus Pocus: Abracadabra (1993) REMUX 1080p Latino. Tres brujas del siglo XII son invocadas...

    Director: Kenny Ortega

    Género: Comedia

    Actores: Vinessa Shaw

descargar Las Crónicas de Narnia El Príncipe Caspian (2008) HD 1080p Latino – CMHDD 1080p 1080p gratis, Las Crónicas de Narnia El Príncipe Caspian (2008) HD 1080p Latino – CMHDD 1080p mega 1 link, Las Crónicas de Narnia El Príncipe Caspian (2008) HD 1080p Latino – CMHDD 1080p pelicula completa, descargar Las Crónicas de Narnia El Príncipe Caspian (2008) HD 1080p Latino – CMHDD 1080p gratis en mega.

Las Crónicas de Narnia El Príncipe Caspian (2008) HD 1080p Latino – CMHDD pelicula full hd, Las Crónicas de Narnia El Príncipe Caspian (2008) HD 1080p Latino – CMHDD mega latino, Las Crónicas de Narnia El Príncipe Caspian (2008) HD 1080p Latino – CMHDD 4k latino, Las Crónicas de Narnia El Príncipe Caspian (2008) HD 1080p Latino – CMHDD pelicula completa, Las Crónicas de Narnia El Príncipe Caspian (2008) HD 1080p Latino – CMHDD descargar gratis, descargar Las Crónicas de Narnia El Príncipe Caspian (2008) HD 1080p Latino – CMHDD pelicula latino, Las Crónicas de Narnia El Príncipe Caspian (2008) HD 1080p Latino – CMHDD 1 link mega, Las Crónicas de Narnia El Príncipe Caspian (2008) HD 1080p Latino – CMHDD 1 link google drive, Las Crónicas de Narnia El Príncipe Caspian (2008) HD 1080p Latino – CMHDD hd 1080p latino.
Comentarios 0