×

¿Problemas para descargar con Mozilla, EDGE? Deshabilita la opción "Abrir vinculos en una pestaña nueva" tal como lo muestra ésta imagen.

Las Crónicas de Narnia- El León, La Bruja y el Ropero (2005) REMUX 1080p Latino CMHDD

461 vistas

Información de Las Crónicas de Narnia- El León, La Bruja y el Ropero (2005) REMUX 1080p Latino CMHDD

Datos de la película

  • Calidad: Full 1080p
  • Audio: Se especifica abajo de la Sinopsis
  • Subtitulos: Español Latino SRT- FORZADOS SRT
  • Resolución: 1920x1080p
  • Formato: MKV
  • Codec: H.264
  • Encoder: Dracarys
  • Mediainfo: Clic para Mostrar Datos Ver
  • Format                      : Matroska
    Format version              : Version 4
    File size                   : 31.6 GiB
    Duration                    : 2 h 22 min
    Overall bit rate mode       : Variable
    Overall bit rate            : 31.7 Mb/s
    Movie name                  : Las Crónicas de Narnia: El León, La Bruja y el Ropero (2005) REMUX 1080p Latino CMHDD
    Encoded date                : UTC 2020-06-06 23:20:06
    Writing application         : mkvmerge v46.0.0 ('No Deeper Escape') 64-bit
    Writing library             : libebml v1.3.10 + libmatroska v1.5.2

    Video
    ID                          : 1
    Format                      : AVC
    Format/Info                 : Advanced Video Codec
    Format profile              : High@L4.1
    Format settings             : CABAC / 4 Ref Frames
    Format settings, CABAC      : Yes
    Format settings, Reference  : 4 frames
    Codec ID                    : V_MPEG4/ISO/AVC
    Duration                    : 2 h 22 min
    Bit rate mode               : Variable
    Bit rate                    : 25.8 Mb/s
    Maximum bit rate            : 34.9 Mb/s
    Width                       : 1 920 pixels
    Height                      : 1 080 pixels
    Display aspect ratio        : 16:9
    Frame rate mode             : Constant
    Frame rate                  : 23.976 (24000/1001) FPS
    Standard                    : NTSC
    Color space                 : YUV
    Chroma subsampling          : 4:2:0
    Bit depth                   : 8 bits
    Scan type                   : Progressive
    Bits/(Pixel*Frame)          : 0.519
    Stream size                 : 25.8 GiB (81%)
    Default                     : Yes
    Forced                      : No
    Color range                 : Limited
    Color primaries             : BT.709
    Transfer characteristics    : BT.709
    Matrix coefficients         : BT.709

    Audio #1
    ID                          : 2
    Format                      : AC-3
    Format/Info                 : Audio Coding 3
    Commercial name             : Dolby Digital
    Codec ID                    : A_AC3
    Duration                    : 2 h 22 min
    Bit rate mode               : Constant
    Bit rate                    : 640 kb/s
    Channel(s)                  : 6 channels
    Channel layout              : L R C LFE Ls Rs
    Sampling rate               : 48.0 kHz
    Frame rate                  : 31.250 FPS (1536 SPF)
    Compression mode            : Lossy
    Stream size                 : 654 MiB (2%)
    Language                    : Spanish
    Service kind                : Complete Main
    Default                     : Yes
    Forced                      : No

    Audio #2
    ID                          : 3
    Format                      : PCM
    Format settings             : Little / Signed
    Codec ID                    : A_PCM/INT/LIT
    Duration                    : 2 h 22 min
    Bit rate mode               : Constant
    Bit rate                    : 4 608 kb/s
    Channel(s)                  : 6 channels
    Sampling rate               : 48.0 kHz
    Frame rate                  : 200.000 FPS (240 SPF)
    Bit depth                   : 16 bits
    Stream size                 : 4.60 GiB (15%)
    Language                    : English
    Default                     : No
    Forced                      : No

    Audio #3
    ID                          : 4
    Format                      : AC-3
    Format/Info                 : Audio Coding 3
    Commercial name             : Dolby Digital
    Codec ID                    : A_AC3
    Duration                    : 2 h 22 min
    Bit rate mode               : Constant
    Bit rate                    : 640 kb/s
    Channel(s)                  : 6 channels
    Channel layout              : L R C LFE Ls Rs
    Sampling rate               : 48.0 kHz
    Frame rate                  : 31.250 FPS (1536 SPF)
    Compression mode            : Lossy
    Stream size                 : 654 MiB (2%)
    Language                    : English
    Service kind                : Complete Main
    Default                     : No
    Forced                      : No

    Text #1
    ID                          : 5
    Format                      : UTF-8
    Codec ID                    : S_TEXT/UTF8
    Codec ID/Info               : UTF-8 Plain Text
    Duration                    : 13 min 55 s
    Bit rate                    : 0 b/s
    Count of elements           : 3
    Stream size                 : 77.0 Bytes (0%)
    Title                       : SRT-Forzados
    Language                    : Spanish
    Default                     : Yes
    Forced                      : No

    Text #2
    ID                          : 6
    Format                      : UTF-8
    Codec ID                    : S_TEXT/UTF8
    Codec ID/Info               : UTF-8 Plain Text
    Duration                    : 2 h 11 min
    Bit rate                    : 32 b/s
    Count of elements           : 1064
    Stream size                 : 31.0 KiB (0%)
    Language                    : Spanish
    Default                     : No
    Forced                      : No

    Text #3
    ID                          : 7
    Format                      : PGS
    Muxing mode                 : zlib
    Codec ID                    : S_HDMV/PGS
    Codec ID/Info               : Picture based subtitle format used on BDs/HD-DVDs
    Duration                    : 2 h 11 min
    Bit rate                    : 17.7 kb/s
    Count of elements           : 2129
    Stream size                 : 16.7 MiB (0%)
    Language                    : Spanish
    Default                     : No
    Forced                      : No

  • Peso: 31.6 GiB

Sinopsis

La historia narra las aventuras de cuatro hermanos: Lucy, Edmund, Susan y Peter, que durante la Segunda Guerra Mundial descubren el mundo de Narnia, al que acceden a través de un armario mágico mientras juegan al escondite en la casa de campo de un viejo profesor. En Narnia descubrirán un mundo increíble habitado por animales que hablan, duendes, faunos, centauros y gigantes al que la Bruja Blanca- Jadis- ha condenado al invierno eterno. Con la ayuda del león Aslan, el noble soberano, los niños lucharán para vencer el poder que la Bruja Blanca ejerce sobre Narnia en una espectacular batalla y conseguir así liberarle de la maldición del frío.

 

 

Latino: AC3 5.1  –  Ingles: PCM + Ac3 5.1

Ficha técnica

Video trailer de la película

Enlaces de descarga

Rip de Bluray

Descargar Las Crónicas de Narnia- El León, La Bruja y el Ropero (2005) REMUX 1080p Latino CMHDD




Aportes de DPeliculasHDmega la pass es:dpeliculashdmega.org Aportes de CinemaniaHD la pass es:cinemaniahdd.com
Guardado en : Aventura , Familia , Fantasía , Remux

Películas relacionadas

descargar Las Crónicas de Narnia- El León, La Bruja y el Ropero (2005) REMUX 1080p Latino CMHDD Full 1080p 1080p gratis, Las Crónicas de Narnia- El León, La Bruja y el Ropero (2005) REMUX 1080p Latino CMHDD Full 1080p mega 1 link, Las Crónicas de Narnia- El León, La Bruja y el Ropero (2005) REMUX 1080p Latino CMHDD Full 1080p pelicula completa, descargar Las Crónicas de Narnia- El León, La Bruja y el Ropero (2005) REMUX 1080p Latino CMHDD Full 1080p gratis en mega.

Las Crónicas de Narnia- El León, La Bruja y el Ropero (2005) REMUX 1080p Latino CMHDD pelicula full hd, Las Crónicas de Narnia- El León, La Bruja y el Ropero (2005) REMUX 1080p Latino CMHDD mega latino, Las Crónicas de Narnia- El León, La Bruja y el Ropero (2005) REMUX 1080p Latino CMHDD 4k latino, Las Crónicas de Narnia- El León, La Bruja y el Ropero (2005) REMUX 1080p Latino CMHDD pelicula completa, Las Crónicas de Narnia- El León, La Bruja y el Ropero (2005) REMUX 1080p Latino CMHDD descargar gratis, descargar Las Crónicas de Narnia- El León, La Bruja y el Ropero (2005) REMUX 1080p Latino CMHDD pelicula latino, Las Crónicas de Narnia- El León, La Bruja y el Ropero (2005) REMUX 1080p Latino CMHDD 1 link mega, Las Crónicas de Narnia- El León, La Bruja y el Ropero (2005) REMUX 1080p Latino CMHDD 1 link google drive, Las Crónicas de Narnia- El León, La Bruja y el Ropero (2005) REMUX 1080p Latino CMHDD hd 1080p latino.
Comentarios 0