×

¿Problemas para descargar con Mozilla, EDGE? Deshabilita la opción "Abrir vinculos en una pestaña nueva" tal como lo muestra ésta imagen.

Las Crónicas de Narnia- El León, La Bruja y el Ropero (2005) Full HD 1080p Latino CMHDD

589 vistas

Información de Las Crónicas de Narnia- El León, La Bruja y el Ropero (2005) Full HD 1080p Latino CMHDD

Datos de la película

  • Calidad: Full 1080p
  • Audio: Se especifica abajo de la Sinopsis
  • Subtitulos: Español Latino SRT- FORZADOS SRT
  • Resolución: 1920x1080p
  • Formato: MKV
  • Codec: H.264
  • Encoder: Dracarys
  • Mediainfo: Clic para Mostrar Datos Ver
  • Format                      : Matroska
    Format version              : Version 4
    File size                   : 9.98 GiB
    Duration                    : 2 h 22 min
    Overall bit rate            : 9 997 kb/s
    Movie name                  : Las Crónicas de Narnia: El León, La Bruja y el Ropero (2005) Full HD 1080p Latino CMHDD
    Encoded date                : UTC 2020-06-06 23:17:12
    Writing application         : mkvmerge v46.0.0 ('No Deeper Escape') 64-bit
    Writing library             : libebml v1.3.10 + libmatroska v1.5.2

    Video
    ID                          : 1
    Format                      : AVC
    Format/Info                 : Advanced Video Codec
    Format profile              : High@L4.1
    Format settings             : CABAC / 4 Ref Frames
    Format settings, CABAC      : Yes
    Format settings, Reference  : 4 frames
    Codec ID                    : V_MPEG4/ISO/AVC
    Duration                    : 2 h 22 min
    Bit rate                    : 4 742 kb/s
    Width                       : 1 920 pixels
    Height                      : 1 080 pixels
    Display aspect ratio        : 16:9
    Frame rate mode             : Constant
    Frame rate                  : 23.976 (24000/1001) FPS
    Color space                 : YUV
    Chroma subsampling          : 4:2:0
    Bit depth                   : 8 bits
    Scan type                   : Progressive
    Bits/(Pixel*Frame)          : 0.095
    Stream size                 : 4.73 GiB (47%)
    Writing library             : x264 core 157 r2935 545de2f
    Encoding settings           : cabac=1 / ref=4 / deblock=1:0:0 / analyse=0x3:0x133 / me=tesa / subme=11 / psy=1 / psy_rd=1.00:0.00 / mixed_ref=1 / me_range=24 / chroma_me=1 / trellis=2 / 8x8dct=1 / cqm=0 / deadzone=21,11 / fast_pskip=0 / chroma_qp_offset=-2 / threads=24 / lookahead_threads=6 / sliced_threads=0 / nr=0 / decimate=1 / interlaced=0 / bluray_compat=0 / constrained_intra=0 / bframes=16 / b_pyramid=2 / b_adapt=2 / b_bias=0 / direct=3 / weightb=1 / open_gop=0 / weightp=2 / keyint=240 / keyint_min=24 / scenecut=40 / intra_refresh=0 / rc_lookahead=60 / rc=crf / mbtree=1 / crf=20.0 / qcomp=0.60 / qpmin=0 / qpmax=69 / qpstep=4 / vbv_maxrate=62500 / vbv_bufsize=78125 / crf_max=0.0 / nal_hrd=none / filler=0 / ip_ratio=1.40 / aq=1:1.00
    Default                     : Yes
    Forced                      : No
    Color range                 : Limited
    Color primaries             : BT.709
    Transfer characteristics    : BT.709
    Matrix coefficients         : BT.709

    Audio #1
    ID                          : 2
    Format                      : AC-3
    Format/Info                 : Audio Coding 3
    Commercial name             : Dolby Digital
    Codec ID                    : A_AC3
    Duration                    : 2 h 22 min
    Bit rate mode               : Constant
    Bit rate                    : 640 kb/s
    Channel(s)                  : 6 channels
    Channel layout              : L R C LFE Ls Rs
    Sampling rate               : 48.0 kHz
    Frame rate                  : 31.250 FPS (1536 SPF)
    Compression mode            : Lossy
    Delay relative to video     : 32 ms
    Stream size                 : 654 MiB (6%)
    Language                    : Spanish
    Service kind                : Complete Main
    Default                     : Yes
    Forced                      : No

    Audio #2
    ID                          : 3
    Format                      : PCM
    Format settings             : Little / Signed
    Codec ID                    : A_PCM/INT/LIT
    Duration                    : 2 h 22 min
    Bit rate mode               : Constant
    Bit rate                    : 4 608 kb/s
    Channel(s)                  : 6 channels
    Sampling rate               : 48.0 kHz
    Frame rate                  : 32.000 FPS (1500 SPF)
    Bit depth                   : 16 bits
    Stream size                 : 4.60 GiB (46%)
    Language                    : English
    Default                     : No
    Forced                      : No

    Text #1
    ID                          : 4
    Format                      : UTF-8
    Codec ID                    : S_TEXT/UTF8
    Codec ID/Info               : UTF-8 Plain Text
    Duration                    : 13 min 55 s
    Bit rate                    : 0 b/s
    Count of elements           : 3
    Stream size                 : 77.0 Bytes (0%)
    Title                       : SRT-Forzados
    Language                    : Spanish
    Default                     : Yes
    Forced                      : No

    Text #2
    ID                          : 5
    Format                      : UTF-8
    Codec ID                    : S_TEXT/UTF8
    Codec ID/Info               : UTF-8 Plain Text
    Duration                    : 2 h 11 min
    Bit rate                    : 32 b/s
    Count of elements           : 1064
    Stream size                 : 31.0 KiB (0%)
    Language                    : Spanish
    Default                     : No
    Forced                      : No

    Text #3
    ID                          : 6
    Format                      : PGS
    Muxing mode                 : zlib
    Codec ID                    : S_HDMV/PGS
    Codec ID/Info               : Picture based subtitle format used on BDs/HD-DVDs
    Duration                    : 2 h 11 min
    Bit rate                    : 17.7 kb/s
    Count of elements           : 2129
    Stream size                 : 16.7 MiB (0%)
    Language                    : Spanish
    Default                     : No
    Forced                      : No

    Menu
    00:00:00.000                : :Chapter 1
    00:07:07.636                : :Chapter 2
    00:11:15.049                : :Chapter 3
    00:18:23.144                : :Chapter 4
    00:24:34.223                : :Chapter 5
    00:29:45.784                : :Chapter 6
    00:34:55.760                : :Chapter 7
    00:39:29.826                : :Chapter 8
    00:46:50.266                : :Chapter 9
    00:50:22.561                : :Chapter 10
    00:56:42.274                : :Chapter 11
    01:01:14.880                : :Chapter 12
    01:12:16.290                : :Chapter 13
    01:18:56.357                : :Chapter 14
    01:24:35.571                : :Chapter 15
    01:31:49.379                : :Chapter 16
    01:37:40.730                : :Chapter 17
    01:46:12.992                : :Chapter 18
    01:49:13.172                : :Chapter 19
    01:52:38.418                : :Chapter 20
    01:54:59.893                : :Chapter 21
    01:59:28.536                : :Chapter 22
    02:05:29.105                : :Chapter 23
    02:11:33.844                : :Chapter 24

  • Peso: 9.98 GiB

Sinopsis

La historia narra las aventuras de cuatro hermanos: Lucy, Edmund, Susan y Peter, que durante la Segunda Guerra Mundial descubren el mundo de Narnia, al que acceden a través de un armario mágico mientras juegan al escondite en la casa de campo de un viejo profesor. En Narnia descubrirán un mundo increíble habitado por animales que hablan, duendes, faunos, centauros y gigantes al que la Bruja Blanca- Jadis- ha condenado al invierno eterno. Con la ayuda del león Aslan, el noble soberano, los niños lucharán para vencer el poder que la Bruja Blanca ejerce sobre Narnia en una espectacular batalla y conseguir así liberarle de la maldición del frío.

 

 

Latino: AC3 5.1  –  Ingles: PCM 5.1

Ficha técnica

Video trailer de la película

Enlaces de descarga

Rip de Bluray

Descargar Las Crónicas de Narnia- El León, La Bruja y el Ropero (2005) Full HD 1080p Latino CMHDD




Aportes de DPeliculasHDmega la pass es:dpeliculashdmega.org Aportes de CinemaniaHD la pass es:cinemaniahdd.com

Películas relacionadas

  • Zola (2020) PLACEBO Full HD 1080p Latino

    Zola (2020) PLACEBO Full HD 1080p Latino

    2020
    Zola (2020) PLACEBO Full HD 1080p Latino

    1h 26m 2020

    Descargar Zola (2020) PLACEBO Full HD 1080p Latino. Una camarera accede a acompañar a una bailarina...

    Director: Sheri Davani

    Género: Comedia

    Actores: Ts Madison

  • Hocus Pocus: Abracadabra (1993) 1080p Latino

    Hocus Pocus: Abracadabra (1993) 1080p Latino

    1993
    Hocus Pocus: Abracadabra (1993) 1080p Latino

    1h 36m 1993

    Descargar Hocus Pocus: Abracadabra (1993) 1080p Latino. Tres brujas del siglo XII son invocadas durante...

    Director: Kenny Ortega

    Género: Comedia

    Actores: Vinessa Shaw

  • Hocus Pocus: Abracadabra (1993) REMUX 1080p Latino

    Hocus Pocus: Abracadabra (1993) REMUX 1080p Latino

    1993
    Hocus Pocus: Abracadabra (1993) REMUX 1080p Latino

    1h 36m 1993

    Descargar Hocus Pocus: Abracadabra (1993) REMUX 1080p Latino. Tres brujas del siglo XII son invocadas...

    Director: Kenny Ortega

    Género: Comedia

    Actores: Vinessa Shaw

descargar Las Crónicas de Narnia- El León, La Bruja y el Ropero (2005) Full HD 1080p Latino CMHDD Full 1080p 1080p gratis, Las Crónicas de Narnia- El León, La Bruja y el Ropero (2005) Full HD 1080p Latino CMHDD Full 1080p mega 1 link, Las Crónicas de Narnia- El León, La Bruja y el Ropero (2005) Full HD 1080p Latino CMHDD Full 1080p pelicula completa, descargar Las Crónicas de Narnia- El León, La Bruja y el Ropero (2005) Full HD 1080p Latino CMHDD Full 1080p gratis en mega.

Las Crónicas de Narnia- El León, La Bruja y el Ropero (2005) Full HD 1080p Latino CMHDD pelicula full hd, Las Crónicas de Narnia- El León, La Bruja y el Ropero (2005) Full HD 1080p Latino CMHDD mega latino, Las Crónicas de Narnia- El León, La Bruja y el Ropero (2005) Full HD 1080p Latino CMHDD 4k latino, Las Crónicas de Narnia- El León, La Bruja y el Ropero (2005) Full HD 1080p Latino CMHDD pelicula completa, Las Crónicas de Narnia- El León, La Bruja y el Ropero (2005) Full HD 1080p Latino CMHDD descargar gratis, descargar Las Crónicas de Narnia- El León, La Bruja y el Ropero (2005) Full HD 1080p Latino CMHDD pelicula latino, Las Crónicas de Narnia- El León, La Bruja y el Ropero (2005) Full HD 1080p Latino CMHDD 1 link mega, Las Crónicas de Narnia- El León, La Bruja y el Ropero (2005) Full HD 1080p Latino CMHDD 1 link google drive, Las Crónicas de Narnia- El León, La Bruja y el Ropero (2005) Full HD 1080p Latino CMHDD hd 1080p latino.
Comentarios 0