×

¿Problemas para descargar con Mozilla, EDGE? Deshabilita la opción "Abrir vinculos en una pestaña nueva" tal como lo muestra ésta imagen.

Las Chicas Del Cable (2017) Temporada 1 NF Web-DL 1080p Español

691 vistas

Información de Las Chicas Del Cable (2017) Temporada 1 NF Web-DL 1080p Español

Datos de la película

  • Calidad: WEBDL
  • Audio: Se especifica abajo de la Sinopsis
  • Subtitulos: No
  • Resolución: 1920x1080p
  • Formato: MKV
  • Codec: H.264
  • Encoder: cinefiloCool
  • Mediainfo: Clic para Mostrar Datos Ver
  • Las Chicas Del Cable S01E01 WEB-DL 1080p Español-CMHDD.mkv
    Format                      : Matroska
    Format version              : Version 4
    File size                   : 1.27 GiB
    Duration                    : 54 min 4 s
    Overall bit rate mode       : Variable
    Overall bit rate            : 3 354 kb/s
    Movie name                  : Las Chicas Del Cable S01E01 - CinemaniaHDD.Net
    Encoded date                : UTC 2019-08-17 03:02:22
    Writing application         : mkvmerge v35.0.0 ('All The Love In The World') 64-bit
    Writing library             : libebml v1.3.9 + libmatroska v1.5.2
    Attachments                 : CINEMANIAHD.png

    Video
    ID                          : 1
    Format                      : AVC
    Format/Info                 : Advanced Video Codec
    Format profile              : Main@L4
    Format settings             : CABAC / 3 Ref Frames
    Format settings, CABAC      : Yes
    Format settings, ReFrames   : 3 frames
    Codec ID                    : V_MPEG4/ISO/AVC
    Duration                    : 54 min 4 s
    Bit rate mode               : Variable
    Bit rate                    : 2 740 kb/s
    Maximum bit rate            : 4 110 kb/s
    Width                       : 1 920 pixels
    Height                      : 1 080 pixels
    Display aspect ratio        : 16:9
    Frame rate mode             : Constant
    Frame rate                  : 25.000 FPS
    Color space                 : YUV
    Chroma subsampling          : 4:2:0
    Bit depth                   : 8 bits
    Scan type                   : Progressive
    Bits/(Pixel*Frame)          : 0.053
    Stream size                 : 1.02 GiB (81%)
    Title                       : HD1080p [Web-DL]
    Writing library             : x264 core 118
    Encoding settings           : cabac=1 / ref=3 / deblock=1:0:0 / analyse=0x1:0x111 / me=umh / subme=10 / psy=1 / psy_rd=1.00:0.00 / mixed_ref=1 / me_range=24 / chroma_me=1 / trellis=2 / 8x8dct=0 / cqm=0 / deadzone=21,11 / fast_pskip=1 / chroma_qp_offset=-2 / threads=8 / sliced_threads=0 / nr=0 / decimate=1 / interlaced=0 / bluray_compat=0 / constrained_intra=0 / bframes=2 / b_pyramid=0 / b_adapt=2 / b_bias=0 / direct=3 / weightb=1 / open_gop=0 / weightp=2 / keyint=50 / keyint_min=26 / scenecut=0 / intra_refresh=0 / rc_lookahead=0 / rc=2pass / mbtree=1 / bitrate=2740 / ratetol=1.0 / qcomp=0.50 / qpmin=6 / qpmax=51 / qpstep=4 / cplxblur=20.0 / qblur=0.5 / vbv_maxrate=4110 / vbv_bufsize=5480 / nal_hrd=vbr / ip_ratio=1.40 / aq=1:1.00
    Default                     : Yes
    Forced                      : No

    Audio
    ID                          : 2
    Format                      : E-AC-3
    Format/Info                 : Enhanced AC-3
    Commercial name             : Dolby Digital Plus
    Codec ID                    : A_EAC3
    Duration                    : 54 min 4 s
    Bit rate mode               : Constant
    Bit rate                    : 640 kb/s
    Channel(s)                  : 6 channels
    Channel layout              : L R C LFE Ls Rs
    Sampling rate               : 48.0 kHz
    Frame rate                  : 31.250 FPS (1536 SPF)
    Compression mode            : Lossy
    Stream size                 : 248 MiB (19%)
    Title                       : DDP_5.1_Web_Cast
    Service kind                : Complete Main
    Default                     : Yes
    Forced                      : No

  • Peso: 1.25 GiB Aprox. c/u. | 9.82 GiB en Total.

Sinopsis

Justo antes del crash del 29, se abre en Madrid la primera empresa nacional de teléfonos. Muchas mujeres esperan conseguir allí un trabajo que no solo representaba una ocupación sino progreso y modernidad en esa época.

Temporada 1.- Madrid, años veinte. Cuatro operadoras de la Compañía de Telefonía de España hacen resonar una revolución mientras lidian con el amor, la amistad y el trabajo.

Audio Español Castellano E-AC3 5.1 NETFLIX

Ficha técnica

Video trailer de la película

Enlaces de descarga

Rip de Bluray

Descargar Las Chicas Del Cable (2017) Temporada 1 NF Web-DL 1080p Español




Aportes de DPeliculasHDmega la pass es:dpeliculashdmega.org Aportes de CinemaniaHD la pass es:cinemaniahdd.com
Guardado en : Castellano , Drama , Series

Películas relacionadas

descargar Las Chicas Del Cable (2017) Temporada 1 NF Web-DL 1080p Español WEBDL 1080p gratis, Las Chicas Del Cable (2017) Temporada 1 NF Web-DL 1080p Español WEBDL mega 1 link, Las Chicas Del Cable (2017) Temporada 1 NF Web-DL 1080p Español WEBDL serie completa, descargar Las Chicas Del Cable (2017) Temporada 1 NF Web-DL 1080p Español WEBDL gratis en mega.

Las Chicas Del Cable (2017) Temporada 1 NF Web-DL 1080p Español pelicula full hd, Las Chicas Del Cable (2017) Temporada 1 NF Web-DL 1080p Español mega latino, Las Chicas Del Cable (2017) Temporada 1 NF Web-DL 1080p Español 4k latino, Las Chicas Del Cable (2017) Temporada 1 NF Web-DL 1080p Español pelicula completa, Las Chicas Del Cable (2017) Temporada 1 NF Web-DL 1080p Español descargar gratis, descargar Las Chicas Del Cable (2017) Temporada 1 NF Web-DL 1080p Español pelicula latino, Las Chicas Del Cable (2017) Temporada 1 NF Web-DL 1080p Español 1 link mega, Las Chicas Del Cable (2017) Temporada 1 NF Web-DL 1080p Español 1 link google drive, Las Chicas Del Cable (2017) Temporada 1 NF Web-DL 1080p Español hd 1080p latino.
Comentarios 0