×

¿Problemas para descargar con Mozilla, EDGE? Deshabilita la opción "Abrir vinculos en una pestaña nueva" tal como lo muestra ésta imagen.

Las brujas de Mayfair de Anne Rice (2023) Temporada 01 REMUX 1080p Latino

178 vistas

Información de Las brujas de Mayfair de Anne Rice (2023) Temporada 01 REMUX 1080p Latino

Datos de la película

  • Calidad: Full 1080p
  • Audio: Se especifica abajo de la Sinopsis
  • Subtitulos: Español Latino PGS - Ingles PGS
  • Resolución: 1920x1080p
  • Formato: MKV
  • Codec: H.264
  • Encoder: Melkor
  • Mediainfo: Clic para Mostrar Datos Ver
  • Mayfair Witches S01E01 (2023) REMUX 1080p Latino.mkv
    Format                      : Matroska
    Format version              : Version 4
    File size                   : 12.1 GiB
    Duration                    : 52 min 41 s
    Overall bit rate mode       : Variable
    Overall bit rate            : 32.9 Mb/s
    Movie name                  : Mayfair Witches S01E01 - The Witching Hour CinemaniaHDD.Net
    Encoded date                : UTC 2023-09-30 01:57:45
    Writing application         : mkvmerge v56.1.0 ('My Friend') 64-bit
    Writing library             : libebml v1.4.2 + libmatroska v1.6.4
    Cover                       : Yes
    Attachments                 : cover.jpg / CINEMANIAHD.png
    Site                        : CinemaniaHDD.Net
    Uploader                    : Melkor

    Video
    ID                          : 1
    Format                      : AVC
    Format/Info                 : Advanced Video Codec
    Format profile              : High@L4.1
    Format settings             : CABAC / 4 Ref Frames
    Format settings, CABAC      : Yes
    Format settings, Reference  : 4 frames
    Format settings, GOP        : M=3, N=12
    Codec ID                    : V_MPEG4/ISO/AVC
    Duration                    : 52 min 41 s
    Bit rate mode               : Variable
    Bit rate                    : 25.8 Mb/s
    Maximum bit rate            : 32.0 Mb/s
    Width                       : 1 920 pixels
    Height                      : 1 080 pixels
    Display aspect ratio        : 16:9
    Frame rate mode             : Constant
    Frame rate                  : 23.976 (24000/1001) FPS
    Color space                 : YUV
    Chroma subsampling          : 4:2:0
    Bit depth                   : 8 bits
    Scan type                   : Progressive
    Bits/(Pixel*Frame)          : 0.520
    Stream size                 : 9.51 GiB (79%)
    Title                       : REMUX HD1080p [CinemaniaHDD]
    Default                     : Yes
    Forced                      : Yes

    Audio #1
    ID                          : 2
    ID in the original source m : 4353 (0x1101)
    Format                      : DTS XLL
    Format/Info                 : Digital Theater Systems
    Commercial name             : DTS-HD Master Audio
    Codec ID                    : A_DTS
    Duration                    : 52 min 40 s
    Bit rate mode               : Variable
    Bit rate                    : 3 547 kb/s
    Channel(s)                  : 6 channels
    Channel layout              : C L R Ls Rs LFE
    Sampling rate               : 48.0 kHz
    Frame rate                  : 93.750 FPS (512 SPF)
    Bit depth                   : 24 bits
    Compression mode            : Lossless
    Stream size                 : 1.30 GiB (11%)
    Title                       : Español Latino [CinemaniaHDD]
    Language                    : Spanish
    Default                     : Yes
    Forced                      : Yes
    Original source medium      : Blu-ray

    Audio #2
    ID                          : 3
    ID in the original source m : 4352 (0x1100)
    Format                      : DTS XLL
    Format/Info                 : Digital Theater Systems
    Commercial name             : DTS-HD Master Audio
    Codec ID                    : A_DTS
    Duration                    : 52 min 40 s
    Bit rate mode               : Variable
    Bit rate                    : 3 470 kb/s
    Channel(s)                  : 6 channels
    Channel layout              : C L R Ls Rs LFE
    Sampling rate               : 48.0 kHz
    Frame rate                  : 93.750 FPS (512 SPF)
    Bit depth                   : 24 bits
    Compression mode            : Lossless
    Stream size                 : 1.28 GiB (11%)
    Title                       : Ingles [CinemaniaHDD]
    Language                    : English
    Default                     : No
    Forced                      : No
    Original source medium      : Blu-ray

    Text #1
    ID                          : 4
    ID in the original source m : 4610 (0x1202)
    Format                      : PGS
    Muxing mode                 : zlib
    Codec ID                    : S_HDMV/PGS
    Codec ID/Info               : Picture based subtitle format used on BDs/HD-DVDs
    Duration                    : 27 min 24 s
    Bit rate                    : 243 b/s
    Count of elements           : 6
    Stream size                 : 48.9 KiB (0%)
    Title                       : Forzados-PGS [CinemaniaHDD]
    Language                    : Spanish
    Default                     : No
    Forced                      : No
    Original source medium      : Blu-ray

    Text #2
    ID                          : 5
    ID in the original source m : 4609 (0x1201)
    Format                      : PGS
    Muxing mode                 : zlib
    Codec ID                    : S_HDMV/PGS
    Codec ID/Info               : Picture based subtitle format used on BDs/HD-DVDs
    Duration                    : 49 min 46 s
    Bit rate                    : 24.3 kb/s
    Count of elements           : 1156
    Stream size                 : 8.66 MiB (0%)
    Title                       : Español-PGS [CinemaniaHDD]
    Language                    : Spanish
    Default                     : No
    Forced                      : No
    Original source medium      : Blu-ray

    Text #3
    ID                          : 6
    ID in the original source m : 4608 (0x1200)
    Format                      : PGS
    Muxing mode                 : zlib
    Codec ID                    : S_HDMV/PGS
    Codec ID/Info               : Picture based subtitle format used on BDs/HD-DVDs
    Duration                    : 52 min 2 s
    Bit rate                    : 27.7 kb/s
    Count of elements           : 1924
    Stream size                 : 10.3 MiB (0%)
    Title                       : Ingles-PGS [CinemaniaHDD]
    Language                    : English
    Default                     : No
    Forced                      : No
    Original source medium      : Blu-ray

    Text #4
    ID                          : 7
    Format                      : UTF-8
    Codec ID                    : S_TEXT/UTF8
    Codec ID/Info               : UTF-8 Plain Text
    Duration                    : 27 min 24 s
    Bit rate                    : 0 b/s
    Count of elements           : 3
    Stream size                 : 98.0 Bytes (0%)
    Title                       : Forzados-SRT [CinemaniaHDD]
    Language                    : Spanish
    Default                     : Yes
    Forced                      : Yes

    Text #5
    ID                          : 8
    Format                      : UTF-8
    Codec ID                    : S_TEXT/UTF8
    Codec ID/Info               : UTF-8 Plain Text
    Duration                    : 49 min 46 s
    Bit rate                    : 59 b/s
    Count of elements           : 578
    Stream size                 : 21.7 KiB (0%)
    Title                       : Español-SRT [CinemaniaHDD]
    Language                    : Spanish
    Default                     : No
    Forced                      : No

    Menu
    00:00:00.000                : Chapter 01
    00:10:54.153                : Chapter 02
    00:18:29.691                : Chapter 03
    00:27:24.059                : Chapter 04
    00:36:30.980                : Chapter 05
    00:52:09.292                : Chapter 06

  • Peso: 10.5 GiB Aprox C/U -- 82.5 GiB -- 8 Chapters

Sinopsis

Descargar Las brujas de Mayfair de Anne Rice (2023) Temporada 01 REMUX 1080p Latino. Basada en la trilogía superventas de Anne Rice, se centra en Rowan Mayfair, una joven e intuitiva neurocirujana que descubre que es la heredera de una familia de brujas. Mientras lidia con sus nuevos poderes, deberá enfrentarse a una presencia siniestra que ha perseguido a su familia durante generaciones.

Español Latino – Ingles [DTS-HD MA 5.1 BD]

Ficha técnica

Video trailer de la película

Enlaces de descarga

Rip de Bluray

Descargar Las brujas de Mayfair de Anne Rice (2023) Temporada 01 REMUX 1080p Latino


Aportes de DPeliculasHDmega la pass es:dpeliculashdmega.org Aportes de CinemaniaHD la pass es:cinemaniahdd.com Aportes recientes:cinemaniahdd.net
Guardado en : Drama , Remux , Sci-Fi & Fantasy , Series

Películas relacionadas

descargar Las brujas de Mayfair de Anne Rice (2023) Temporada 01 REMUX 1080p Latino Full 1080p 1080p gratis, Las brujas de Mayfair de Anne Rice (2023) Temporada 01 REMUX 1080p Latino Full 1080p mega 1 link, Las brujas de Mayfair de Anne Rice (2023) Temporada 01 REMUX 1080p Latino Full 1080p serie completa, descargar Las brujas de Mayfair de Anne Rice (2023) Temporada 01 REMUX 1080p Latino Full 1080p gratis en mega.

Las brujas de Mayfair de Anne Rice (2023) Temporada 01 REMUX 1080p Latino pelicula full hd, Las brujas de Mayfair de Anne Rice (2023) Temporada 01 REMUX 1080p Latino mega latino, Las brujas de Mayfair de Anne Rice (2023) Temporada 01 REMUX 1080p Latino 4k latino, Las brujas de Mayfair de Anne Rice (2023) Temporada 01 REMUX 1080p Latino pelicula completa, Las brujas de Mayfair de Anne Rice (2023) Temporada 01 REMUX 1080p Latino descargar gratis, descargar Las brujas de Mayfair de Anne Rice (2023) Temporada 01 REMUX 1080p Latino pelicula latino, Las brujas de Mayfair de Anne Rice (2023) Temporada 01 REMUX 1080p Latino 1 link mega, Las brujas de Mayfair de Anne Rice (2023) Temporada 01 REMUX 1080p Latino 1 link google drive, Las brujas de Mayfair de Anne Rice (2023) Temporada 01 REMUX 1080p Latino hd 1080p latino.
Comentarios 0