×

¿Problemas para descargar con Mozilla, EDGE? Deshabilita la opción "Abrir vinculos en una pestaña nueva" tal como lo muestra ésta imagen.

Las brujas de Mayfair de Anne Rice (2023) Temporada 01 Full HD 1080p Latino

206 vistas

Información de Las brujas de Mayfair de Anne Rice (2023) Temporada 01 Full HD 1080p Latino

Datos de la película

  • Calidad: Full 1080p
  • Audio: Español Latino DTS 5.1 BLURAY - Ingles DTS 5.1 BLURAY
  • Subtitulos: Español Latino PGS - Ingles PGS
  • Resolución: 1920x1080p
  • Formato: MKV
  • Codec: H.264
  • Encoder: Melkor
  • Mediainfo: Clic para Mostrar Datos Ver
  • Mayfair Witches S01E01 (2023) Full HD1080p Latino.mkv
    Format                      : Matroska
    Format version              : Version 4
    File size                   : 3.13 GiB
    Duration                    : 52 min 41 s
    Overall bit rate            : 8 505 kb/s
    Movie name                  : Mayfair Witches S01E01 - The Witching Hour CinemaniaHDD.Net
    Encoded date                : UTC 2023-09-30 03:41:03
    Writing application         : mkvmerge v56.1.0 ('My Friend') 64-bit
    Writing library             : libebml v1.4.2 + libmatroska v1.6.4
    Cover                       : Yes
    Attachments                 : cover.jpg / CINEMANIAHD.png
    Site                        : CinemaniaHDD.Net
    Uploader                    : Melkor

    Video
    ID                          : 1
    Format                      : AVC
    Format/Info                 : Advanced Video Codec
    Format profile              : High@L4.1
    Format settings             : CABAC / 4 Ref Frames
    Format settings, CABAC      : Yes
    Format settings, Reference  : 4 frames
    Codec ID                    : V_MPEG4/ISO/AVC
    Duration                    : 52 min 41 s
    Bit rate                    : 5 466 kb/s
    Width                       : 1 920 pixels
    Height                      : 1 080 pixels
    Display aspect ratio        : 16:9
    Frame rate mode             : Constant
    Frame rate                  : 23.976 (24000/1001) FPS
    Color space                 : YUV
    Chroma subsampling          : 4:2:0
    Bit depth                   : 8 bits
    Scan type                   : Progressive
    Bits/(Pixel*Frame)          : 0.110
    Stream size                 : 2.01 GiB (64%)
    Title                       : Full HD1080p [CinemaniaHDD]
    Writing library             : x264 core 163 r3059 b684ebe0
    Encoding settings           : cabac=1 / ref=4 / deblock=1:0:0 / analyse=0x3:0x133 / me=esa / subme=10 / psy=1 / psy_rd=1.00:0.00 / mixed_ref=1 / me_range=24 / chroma_me=1 / trellis=2 / 8x8dct=1 / cqm=0 / deadzone=21,11 / fast_pskip=1 / chroma_qp_offset=-2 / threads=24 / lookahead_threads=4 / sliced_threads=0 / nr=0 / decimate=1 / interlaced=0 / bluray_compat=0 / constrained_intra=0 / bframes=8 / b_pyramid=2 / b_adapt=2 / b_bias=0 / direct=3 / weightb=1 / open_gop=0 / weightp=2 / keyint=240 / keyint_min=24 / scenecut=40 / intra_refresh=0 / rc_lookahead=60 / rc=crf / mbtree=1 / crf=20.0 / qcomp=0.60 / qpmin=0 / qpmax=69 / qpstep=4 / vbv_maxrate=62500 / vbv_bufsize=78125 / crf_max=0.0 / nal_hrd=none / filler=0 / ip_ratio=1.40 / aq=1:1.00
    Default                     : Yes
    Forced                      : Yes
    Color range                 : Limited
    Color primaries             : BT.709
    Transfer characteristics    : BT.709
    Matrix coefficients         : BT.709

    Audio #1
    ID                          : 2
    Format                      : DTS
    Format/Info                 : Digital Theater Systems
    Codec ID                    : A_DTS
    Duration                    : 52 min 40 s
    Bit rate mode               : Constant
    Bit rate                    : 1 509 kb/s
    Channel(s)                  : 6 channels
    Channel layout              : C L R Ls Rs LFE
    Sampling rate               : 48.0 kHz
    Frame rate                  : 93.750 FPS (512 SPF)
    Bit depth                   : 24 bits
    Compression mode            : Lossy
    Stream size                 : 569 MiB (18%)
    Title                       : Español Latino [CinemaniaHDD]
    Language                    : Spanish
    Default                     : Yes
    Forced                      : Yes

    Audio #2
    ID                          : 3
    Format                      : DTS
    Format/Info                 : Digital Theater Systems
    Codec ID                    : A_DTS
    Duration                    : 52 min 40 s
    Bit rate mode               : Constant
    Bit rate                    : 1 509 kb/s
    Channel(s)                  : 6 channels
    Channel layout              : C L R Ls Rs LFE
    Sampling rate               : 48.0 kHz
    Frame rate                  : 93.750 FPS (512 SPF)
    Bit depth                   : 24 bits
    Compression mode            : Lossy
    Stream size                 : 569 MiB (18%)
    Title                       : Ingles [CinemaniaHDD]
    Language                    : English
    Default                     : No
    Forced                      : No

    Text #1
    ID                          : 4
    ID in the original source m : 4610 (0x1202)
    Format                      : PGS
    Muxing mode                 : zlib
    Codec ID                    : S_HDMV/PGS
    Codec ID/Info               : Picture based subtitle format used on BDs/HD-DVDs
    Duration                    : 27 min 24 s
    Bit rate                    : 243 b/s
    Count of elements           : 6
    Stream size                 : 48.9 KiB (0%)
    Title                       : Forzados-PGS [CinemaniaHDD]
    Language                    : Spanish
    Default                     : No
    Forced                      : No
    Original source medium      : Blu-ray

    Text #2
    ID                          : 5
    ID in the original source m : 4609 (0x1201)
    Format                      : PGS
    Muxing mode                 : zlib
    Codec ID                    : S_HDMV/PGS
    Codec ID/Info               : Picture based subtitle format used on BDs/HD-DVDs
    Duration                    : 49 min 46 s
    Bit rate                    : 24.3 kb/s
    Count of elements           : 1156
    Stream size                 : 8.66 MiB (0%)
    Title                       : Español-PGS [CinemaniaHDD]
    Language                    : Spanish
    Default                     : No
    Forced                      : No
    Original source medium      : Blu-ray

    Text #3
    ID                          : 6
    ID in the original source m : 4608 (0x1200)
    Format                      : PGS
    Muxing mode                 : zlib
    Codec ID                    : S_HDMV/PGS
    Codec ID/Info               : Picture based subtitle format used on BDs/HD-DVDs
    Duration                    : 52 min 2 s
    Bit rate                    : 27.7 kb/s
    Count of elements           : 1924
    Stream size                 : 10.3 MiB (0%)
    Title                       : Ingles-PGS [CinemaniaHDD]
    Language                    : English
    Default                     : No
    Forced                      : No
    Original source medium      : Blu-ray

    Text #4
    ID                          : 7
    Format                      : UTF-8
    Codec ID                    : S_TEXT/UTF8
    Codec ID/Info               : UTF-8 Plain Text
    Duration                    : 27 min 24 s
    Bit rate                    : 0 b/s
    Count of elements           : 3
    Stream size                 : 98.0 Bytes (0%)
    Title                       : Forzados-SRT [CinemaniaHDD]
    Language                    : Spanish
    Default                     : Yes
    Forced                      : Yes

    Text #5
    ID                          : 8
    Format                      : UTF-8
    Codec ID                    : S_TEXT/UTF8
    Codec ID/Info               : UTF-8 Plain Text
    Duration                    : 49 min 46 s
    Bit rate                    : 59 b/s
    Count of elements           : 578
    Stream size                 : 21.7 KiB (0%)
    Title                       : Español-SRT [CinemaniaHDD]
    Language                    : Spanish
    Default                     : No
    Forced                      : No

    Menu
    00:00:00.000                : Chapter 01
    00:10:54.153                : Chapter 02
    00:18:29.691                : Chapter 03
    00:27:24.059                : Chapter 04
    00:36:30.980                : Chapter 05
    00:52:09.292                : Chapter 06

  • Peso: 2.5 GiB Aprox C/U -- 19.5 GiB -- 8 Chapters

Sinopsis

Descargar Las brujas de Mayfair de Anne Rice (2023) Temporada 01 Full HD 1080p Latino. Basada en la trilogía superventas de Anne Rice, se centra en Rowan Mayfair, una joven e intuitiva neurocirujana que descubre que es la heredera de una familia de brujas. Mientras lidia con sus nuevos poderes, deberá enfrentarse a una presencia siniestra que ha perseguido a su familia durante generaciones.

Ficha técnica

Video trailer de la película

Enlaces de descarga

Rip de Bluray

Descargar Las brujas de Mayfair de Anne Rice (2023) Temporada 01 Full HD 1080p Latino




Aportes de DPeliculasHDmega la pass es:dpeliculashdmega.org Aportes de CinemaniaHD la pass es:cinemaniahdd.com Aportes recientes:cinemaniahdd.net

Películas relacionadas

descargar Las brujas de Mayfair de Anne Rice (2023) Temporada 01 Full HD 1080p Latino Full 1080p 1080p gratis, Las brujas de Mayfair de Anne Rice (2023) Temporada 01 Full HD 1080p Latino Full 1080p mega 1 link, Las brujas de Mayfair de Anne Rice (2023) Temporada 01 Full HD 1080p Latino Full 1080p serie completa, descargar Las brujas de Mayfair de Anne Rice (2023) Temporada 01 Full HD 1080p Latino Full 1080p gratis en mega.

Las brujas de Mayfair de Anne Rice (2023) Temporada 01 Full HD 1080p Latino pelicula full hd, Las brujas de Mayfair de Anne Rice (2023) Temporada 01 Full HD 1080p Latino mega latino, Las brujas de Mayfair de Anne Rice (2023) Temporada 01 Full HD 1080p Latino 4k latino, Las brujas de Mayfair de Anne Rice (2023) Temporada 01 Full HD 1080p Latino pelicula completa, Las brujas de Mayfair de Anne Rice (2023) Temporada 01 Full HD 1080p Latino descargar gratis, descargar Las brujas de Mayfair de Anne Rice (2023) Temporada 01 Full HD 1080p Latino pelicula latino, Las brujas de Mayfair de Anne Rice (2023) Temporada 01 Full HD 1080p Latino 1 link mega, Las brujas de Mayfair de Anne Rice (2023) Temporada 01 Full HD 1080p Latino 1 link google drive, Las brujas de Mayfair de Anne Rice (2023) Temporada 01 Full HD 1080p Latino hd 1080p latino.
Comentarios 0