Las Brujas (2020) 4K UHD HDR WEB Latino

49 vistas
1 estrella2 estrellas3 estrellas4 estrellas5 estrellas (1 votos, promedio: 5,00 de 5)
Cargando...

Información de Las Brujas (2020) 4K UHD HDR WEB Latino

Datos de la película

  • Calidad: WEBDL
  • Audio: Se especifica abajo de la Sinopsis
  • Subtitulos: Español Latino SRT- FORZADOS SRT
  • Resolución: 3840x2160p
  • Formato: MKV
  • Codec: HEVC
  • Encoder: Melkor
  • Mediainfo: Clic para Mostrar Datos Ver
  • Las Brujas (2020) UHD HDR WEB Latino.mkv
    Format                      : Matroska
    Format version              : Version 4
    File size                   : 13.2 GiB
    Duration                    : 1 h 44 min
    Overall bit rate            : 18.2 Mb/s
    Movie name                  : The Witches (2020) CinemaniaHDD.Net
    Encoded date                : UTC 2020-12-23 17:35:19
    Writing application         : mkvmerge v51.0.0 ('I Wish') 64-bit
    Writing library             : libebml v1.4.0 + libmatroska v1.6.2
    Attachments                 : CINEMANIAHD.png

    Video
    ID                          : 1
    Format                      : HEVC
    Format/Info                 : High Efficiency Video Coding
    Format profile              : Main 10@L5.1@Main
    HDR format                  : SMPTE ST 2094 App 4, Version 1, HDR10+ Profile B compatible
    Codec ID                    : V_MPEGH/ISO/HEVC
    Duration                    : 1 h 44 min
    Bit rate                    : 17.6 Mb/s
    Width                       : 3 840 pixels
    Height                      : 2 160 pixels
    Display aspect ratio        : 16:9
    Frame rate mode             : Constant
    Frame rate                  : 23.976 (24000/1001) FPS
    Original frame rate         : 23.976 (23976/1000) FPS
    Color space                 : YUV
    Chroma subsampling          : 4:2:0
    Bit depth                   : 10 bits
    Bits/(Pixel*Frame)          : 0.089
    Stream size                 : 12.8 GiB (97%)
    Title                       : Web 2160p HDR [CinemaniaHDD]
    Writing library             : x265 3.0_RC+11-72188bd2f034:[Linux][GCC 4.9.2][64 bit] 10bit
    Encoding settings           : cpuid=1111039 / frame-threads=3 / wpp / no-pmode / no-pme / no-psnr / no-ssim / log-level=2 / input-csp=1 / input-res=3840x2160 / interlace=0 / total-frames=0 / level-idc=51 / high-tier=1 / uhd-bd=0 / ref=4 / no-allow-non-conformance / repeat-headers / annexb / no-aud / no-hrd / info / hash=0 / no-temporal-layers / no-open-gop / min-keyint=24 / keyint=48 / gop-lookahead=0 / bframes=3 / b-adapt=0 / no-b-pyramid / bframe-bias=0 / rc-lookahead=15 / lookahead-slices=8 / scenecut=0 / radl=0 / no-splice / no-intra-refresh / ctu=64 / min-cu-size=8 / no-rect / no-amp / max-tu-size=32 / tu-inter-depth=1 / tu-intra-depth=1 / limit-tu=0 / rdoq-level=0 / dynamic-rd=0.00 / no-ssim-rd / signhide / no-tskip / nr-intra=0 / nr-inter=0 / no-constrained-intra / strong-intra-smoothing / max-merge=2 / limit-refs=3 / no-limit-modes / me=1 / subme=2 / merange=57 / temporal-mvp / weightp / no-weightb / no-analyze-src-pics / deblock=0:0 / sao / no-sao-non-deblock / rd=2 / no-early-skip / rskip / fast-intra / no-tskip-fast / no-cu-lossless / no-b-intra / no-splitrd-skip / rdpenalty=0 / psy-rd=2.00 / psy-rdoq=0.00 / no-rd-refine / no-lossless / cbqpoffs=0 / crqpoffs=0 / rc=cbr / bitrate=18000 / qcomp=0.60 / qpstep=4 / stats-write=0 / stats-read=0 / vbv-maxrate=18000 / vbv-bufsize=36000 / vbv-init=0.9 / ipratio=1.40 / pbratio=1.30 / aq-mode=2 / aq-strength=1.00 / cutree / zone-count=0 / no-strict-cbr / qg-size=32 / no-rc-grain / qpmax=69 / qpmin=0 / no-const-vbv / sar=1 / overscan=0 / videoformat=5 / range=0 / colorprim=9 / transfer=16 / colormatrix=9 / chromaloc=0 / display-window=0 / master-display=G(13250,34500)B(7500,3000)R(34000,16000)WP(15635,16450)L(40000000,50) / max-cll=1274,638 / min-luma=0 / max-luma=1023 / log2-max-poc-lsb=8 / vui-timing-info / vui-hrd-info / slices=1 / no-opt-qp-pps / no-opt-ref-list-length-pps / no-multi-pass-opt-rps / scenecut-bias=0.05 / no-opt-cu-delta-qp / no-aq-motion / hdr / no-hdr-opt / no-dhdr10-opt / no-idr-recovery-sei / analysis-reuse-level=5 / scale-factor=0 / refine-intra=0 / refine-inter=0 / refine-mv=0 / refine-ctu-distortion=0 / no-limit-sao / ctu-info=0 / no-lowpass-dct / refine-analysis-type=0 / copy-pic=1 / max-ausize-factor=1.0 / no-dynamic-refine / no-single-sei / no-hevc-aq / qp-adaptation-range=1.00
    Default                     : Yes
    Forced                      : No
    Color range                 : Limited
    Color primaries             : BT.2020
    Transfer characteristics    : PQ
    Matrix coefficients         : BT.2020 non-constant
    Mastering display color pri : Display P3
    Mastering display luminance : min: 0.0050 cd/m2, max: 4000 cd/m2
    Maximum Content Light Level : 1274 cd/m2
    Maximum Frame-Average Light : 638 cd/m2

    Audio #1
    ID                          : 2
    Format                      : AC-3
    Format/Info                 : Audio Coding 3
    Commercial name             : Dolby Digital
    Codec ID                    : A_AC3
    Duration                    : 1 h 44 min
    Bit rate mode               : Constant
    Bit rate                    : 256 kb/s
    Channel(s)                  : 2 channels
    Channel layout              : L R
    Sampling rate               : 48.0 kHz
    Frame rate                  : 31.250 FPS (1536 SPF)
    Compression mode            : Lossy
    Delay relative to video     : 2 ms
    Stream size                 : 191 MiB (1%)
    Title                       : Español Latino [CinemaniaHDD]
    Language                    : Spanish
    Service kind                : Complete Main
    Default                     : Yes
    Forced                      : No

    Audio #2
    ID                          : 3
    Format                      : E-AC-3
    Format/Info                 : Enhanced AC-3
    Commercial name             : Dolby Digital Plus
    Codec ID                    : A_EAC3
    Duration                    : 1 h 44 min
    Bit rate mode               : Constant
    Bit rate                    : 256 kb/s
    Channel(s)                  : 6 channels
    Channel layout              : L R C LFE Ls Rs
    Sampling rate               : 48.0 kHz
    Frame rate                  : 31.250 FPS (1536 SPF)
    Compression mode            : Lossy
    Stream size                 : 191 MiB (1%)
    Title                       : Ingles [CinemaniaHDD]
    Language                    : English
    Service kind                : Complete Main
    Default                     : No
    Forced                      : No

    Text #1
    ID                          : 4
    Format                      : UTF-8
    Codec ID                    : S_TEXT/UTF8
    Codec ID/Info               : UTF-8 Plain Text
    Duration                    : 1 h 31 min
    Bit rate                    : 0 b/s
    Count of elements           : 11
    Stream size                 : 408 Bytes (0%)
    Title                       : Forzados-SRT [CinemaniaHDD]
    Language                    : Spanish
    Default                     : Yes
    Forced                      : No

    Text #2
    ID                          : 5
    Format                      : UTF-8
    Codec ID                    : S_TEXT/UTF8
    Codec ID/Info               : UTF-8 Plain Text
    Duration                    : 1 h 36 min
    Bit rate                    : 58 b/s
    Count of elements           : 1452
    Stream size                 : 41.2 KiB (0%)
    Title                       : Español-SRT [CinemaniaHDD]
    Language                    : Spanish
    Default                     : No
    Forced                      : No

    Text #3
    ID                          : 6
    Format                      : UTF-8
    Codec ID                    : S_TEXT/UTF8
    Codec ID/Info               : UTF-8 Plain Text
    Duration                    : 1 h 36 min
    Bit rate                    : 59 b/s
    Count of elements           : 1344
    Stream size                 : 41.7 KiB (0%)
    Title                       : Ingles-SRT [CinemaniaHDD]
    Language                    : English
    Default                     : No
    Forced                      : No

  • Peso: 13.2 GiB

Sinopsis

Descargar Las Brujas (2020) 4K UHD HDR WEB Latino. Un pequeño huérfano a finales de 1967, se va a vivir con su querida abuela a Demopolis, un pueblo de Alabama. El niño y su abuela tienen extraños encuentros con algunas brujas por lo que deciden mudarse a un hotel de lujo en la costa. Por desgracia, llegan exactamente al mismo tiempo que la Gran Bruja que ha reunido a sus compinches de todo el planeta -que van de incógnito- para llevar a cabo sus horribles planes.

Español Latino AC3 2.0 WebDL – Ingles EAC3 5.1 WebDL

Ficha técnica

Video trailer de la película

Enlaces de descarga

Rip de Bluray

Descargar Las Brujas (2020) 4K UHD HDR WEB Latino




Aportes de DPeliculasHDmega la pass es:dpeliculashdmega.org Aportes de CinemaniaHD la pass es:cinemaniahdd.com
Guardado en : Comedia , 4K HDR , 4K UHD , Aventura , Familia , Fantasía , Terror

Películas relacionadas

  • El Atrapasueños (2020) HD 1080p Latino

    El Atrapasueños (2020) HD 1080p Latino

    2020
    El Atrapasueños (2020) HD 1080p Latino

    0.0 0h 0m 2020

    Descargar El Atrapasueños (2020) HD 1080p Latino. Para detener sus malos sueños, un niño roba un cazador...

    Director: Kerry Harris

    Género: Suspenso

    Actores: Radha Mitchell

  • El Atrapasueños (2020) REMUX 1080p Latino

    El Atrapasueños (2020) REMUX 1080p Latino

    2020
    El Atrapasueños (2020) REMUX 1080p Latino

    0.0 1h 25m 2020

    Descargar El Atrapasueños (2020) REMUX 1080p Latino. Para detener sus malos sueños, un niño roba un...

    Director: Kerry Harris

    Género: Suspenso

    Actores: Radha Mitchell

  • Van Helsing (2004) 1080p Latino

    Van Helsing (2004) 1080p Latino

    2004
    Van Helsing (2004) 1080p Latino

    0.0 2h 11m 2004

    Descargar Van Helsing (2004) 1080p Latino. Siglo XIX. En medio de los montes de los Cárpatos está la...

    Director: Sylvie Chesneau

    Género: Acción

    Actores: Zuzana Durdinová

  • Van Helsing (2004) Full HD 1080p Latino

    Van Helsing (2004) Full HD 1080p Latino

    2004
    Van Helsing (2004) Full HD 1080p Latino

    4.9 2h 11m 2004

    Descargar Van Helsing (2004) Full HD 1080p Latino. Siglo XIX. En medio de los montes de los Cárpatos...

    Director: Sylvie Chesneau

    Género: Acción

    Actores: Will Kemp

Comentarios 0