×

¿Problemas para descargar con Mozilla, EDGE? Deshabilita la opción "Abrir vinculos en una pestaña nueva" tal como lo muestra ésta imagen.

Las aventuras de una Super Maestra (2018) WEB-DL 1080p Latino

698 vistas

Información de Las aventuras de una Super Maestra (2018) WEB-DL 1080p Latino

Datos de la película

  • Calidad: WEBDL
  • Audio: Se especifica abajo de la Sinopsis
  • Subtitulos: No
  • Resolución: 1920x1080
  • Formato: MKV
  • Codec: H.264
  • Encoder: cinemaniahdd
  • Mediainfo: Clic para Mostrar Datos Ver
  • Las aventuras de una Super Maestra (2018) WEB-DL 1080p Latino.mkv
    Format                      : Matroska
    Format version              : Version 4
    File size                   : 2.81 GiB
    Duration                    : 1 h 27 min
    Overall bit rate mode       : Constant
    Overall bit rate            : 4 588 kb/s
    Movie name                  : Las aventuras de una Super Maestra (2018) - CinemaniaHDD.Net
    Encoded date                : UTC 2019-10-02 16:25:54
    Writing application         : mkvmerge v35.0.0 ('All The Love In The World') 64-bit
    Writing library             : libebml v1.3.9 + libmatroska v1.5.2

    Video
    ID                          : 1
    Format                      : AVC
    Format/Info                 : Advanced Video Codec
    Format profile              : High@L4
    Format settings             : CABAC / 2 Ref Frames
    Format settings, CABAC      : Yes
    Format settings, ReFrames   : 2 frames
    Format settings, GOP        : M=1, N=60
    Codec ID                    : V_MPEG4/ISO/AVC
    Duration                    : 1 h 27 min
    Bit rate mode               : Constant
    Bit rate                    : 4 000 kb/s
    Width                       : 1 920 pixels
    Height                      : 1 080 pixels
    Display aspect ratio        : 16:9
    Frame rate mode             : Constant
    Frame rate                  : 23.976 (24000/1001) FPS
    Color space                 : YUV
    Chroma subsampling          : 4:2:0
    Bit depth                   : 8 bits
    Scan type                   : Progressive
    Bits/(Pixel*Frame)          : 0.080
    Stream size                 : 2.41 GiB (86%)
    Title                       : CinemaniaHDD
    Default                     : Yes
    Forced                      : No
    Color range                 : Limited
    Color primaries             : BT.709
    Transfer characteristics    : BT.709
    Matrix coefficients         : BT.709

    Audio #1
    ID                          : 2
    Format                      : AC-3
    Format/Info                 : Audio Coding 3
    Commercial name             : Dolby Digital
    Codec ID                    : A_AC3
    Duration                    : 1 h 27 min
    Bit rate mode               : Constant
    Bit rate                    : 256 kb/s
    Channel(s)                  : 2 channels
    Channel layout              : L R
    Sampling rate               : 48.0 kHz
    Frame rate                  : 31.250 FPS (1536 SPF)
    Bit depth                   : 16 bits
    Compression mode            : Lossy
    Stream size                 : 160 MiB (6%)
    Title                       : Español latino [CinemaniaHDD]
    Language                    : Spanish
    Service kind                : Complete Main
    Default                     : Yes
    Forced                      : No

    Audio #2
    ID                          : 3
    Format                      : AC-3
    Format/Info                 : Audio Coding 3
    Commercial name             : Dolby Digital
    Codec ID                    : A_AC3
    Duration                    : 1 h 27 min
    Bit rate mode               : Constant
    Bit rate                    : 384 kb/s
    Channel(s)                  : 6 channels
    Channel layout              : L R C LFE Ls Rs
    Sampling rate               : 48.0 kHz
    Frame rate                  : 31.250 FPS (1536 SPF)
    Bit depth                   : 16 bits
    Compression mode            : Lossy
    Stream size                 : 241 MiB (8%)
    Title                       : Holandés [CinemaniaHDD]
    Language                    : Dutch
    Service kind                : Complete Main
    Default                     : No
    Forced                      : No

     

  • Peso: 2.81 GiB

Sinopsis

Además de ser una maestra de escuela primaria, Josje es una superheroína que rescata animales en secreto. Cuando descubre una conspiración contra el zoológico local, ella tiene una peligrosa misión por delante.

Español Latino AC3 2.0 – Holandés AC3 5.1

Ficha técnica

Video trailer de la película

Enlaces de descarga

Rip de Bluray

Descargar Las aventuras de una Super Maestra (2018) WEB-DL 1080p Latino




Aportes de DPeliculasHDmega la pass es:dpeliculashdmega.org Aportes de CinemaniaHD la pass es:cinemaniahdd.com
Guardado en : Acción , Aventura , Familia

Películas relacionadas

  • Abracadabra 2 (2022) D+ WEB-DL 4K UHD HDR Latino

    Abracadabra 2 (2022) D+ WEB-DL 4K UHD HDR Latino

    2022
    Abracadabra 2 (2022) D+ WEB-DL 4K UHD HDR Latino

    1h 45m 2022

    Descargar Abracadabra 2 (2022) D+ WEB-DL 4K UHD HDR Latino. Han pasado 29 años desde que alguien encendió...

    Director: Anne Fletcher

    Género: 4K HDR

    Actores: Whitney Peak

  • Abracadabra 2 (2022) D+ WEB-DL 1080p Latino

    Abracadabra 2 (2022) D+ WEB-DL 1080p Latino

    2022
    Abracadabra 2 (2022) D+ WEB-DL 1080p Latino

    1h 45m 2022

    Descargar Abracadabra 2 (2022) D+ WEB-DL 1080p Latino. Han pasado 29 años desde que alguien encendió...

    Director: Anne Fletcher

    Género: Comedia

    Actores: Whitney Peak

  • Wire Room (2022) HD 1080p Latino

    Wire Room (2022) HD 1080p Latino

    2022
    Wire Room (2022) HD 1080p Latino

    1h 37m 2022

    Descargar Wire Room (2022) HD 1080p Latino. Mientras está de servicio en la sala de cables, un agente...

    Director: Matt Eskandari

    Género: Acción

    Actores: Texas Battle

descargar Las aventuras de una Super Maestra (2018) WEB-DL 1080p Latino WEBDL 1080p gratis, Las aventuras de una Super Maestra (2018) WEB-DL 1080p Latino WEBDL mega 1 link, Las aventuras de una Super Maestra (2018) WEB-DL 1080p Latino WEBDL pelicula completa, descargar Las aventuras de una Super Maestra (2018) WEB-DL 1080p Latino WEBDL gratis en mega.

Las aventuras de una Super Maestra (2018) WEB-DL 1080p Latino pelicula full hd, Las aventuras de una Super Maestra (2018) WEB-DL 1080p Latino mega latino, Las aventuras de una Super Maestra (2018) WEB-DL 1080p Latino 4k latino, Las aventuras de una Super Maestra (2018) WEB-DL 1080p Latino pelicula completa, Las aventuras de una Super Maestra (2018) WEB-DL 1080p Latino descargar gratis, descargar Las aventuras de una Super Maestra (2018) WEB-DL 1080p Latino pelicula latino, Las aventuras de una Super Maestra (2018) WEB-DL 1080p Latino 1 link mega, Las aventuras de una Super Maestra (2018) WEB-DL 1080p Latino 1 link google drive, Las aventuras de una Super Maestra (2018) WEB-DL 1080p Latino hd 1080p latino.
Comentarios 0