×

¿Problemas para descargar con Mozilla, EDGE? Deshabilita la opción "Abrir vinculos en una pestaña nueva" tal como lo muestra ésta imagen.

Las aventuras de Maurice (2022) AMZN WEB-DL 1080p Latino

420 vistas

Información de Las aventuras de Maurice (2022) AMZN WEB-DL 1080p Latino

Datos de la película

  • Calidad: WEBDL
  • Audio: Español Latino AC3 5.1 WEB-DL - Ingles AC3 5.1 WEB-DL
  • Subtitulos: No
  • Resolución: 1920x1040p
  • Formato: MKV
  • Codec: H.264
  • Encoder: Melkor
  • Mediainfo: Clic para Mostrar Datos Ver
  • Las aventuras de Maurice (2022) AMZN WebDL 1080p Latino.mkv
    Format                      : Matroska
    Format version              : Version 4
    File size                   : 5.03 GiB
    Duration                    : 1 h 33 min
    Overall bit rate mode       : Constant
    Overall bit rate            : 7 704 kb/s
    Movie name                  : The Amazing Maurice (2022) CinemaniaHDD.Net
    Encoded date                : UTC 2023-04-06 21:38:12
    Writing application         : mkvmerge v56.1.0 ('My Friend') 64-bit
    Writing library             : libebml v1.4.2 + libmatroska v1.6.4
    Attachments                 : CINEMANIAHD.png / CINEMANIAHD.png
    Site                        : CinemaniaHDD.Net
    Uploader                    : Melkor

    Video
    ID                          : 1
    Format                      : AVC
    Format/Info                 : Advanced Video Codec
    Format profile              : High@L4
    Format settings             : CABAC / 4 Ref Frames
    Format settings, CABAC      : Yes
    Format settings, Reference  : 4 frames
    Codec ID                    : V_MPEG4/ISO/AVC
    Duration                    : 1 h 33 min
    Bit rate mode               : Constant
    Bit rate                    : 6 613 kb/s
    Nominal bit rate            : 10 000 kb/s
    Width                       : 1 920 pixels
    Height                      : 1 040 pixels
    Display aspect ratio        : 1.85:1
    Frame rate mode             : Constant
    Frame rate                  : 24.000 FPS
    Color space                 : YUV
    Chroma subsampling          : 4:2:0
    Bit depth                   : 8 bits
    Scan type                   : Progressive
    Bits/(Pixel*Frame)          : 0.138
    Stream size                 : 4.32 GiB (86%)
    Title                       : WEB HD1080p [CinemaniaHDD]
    Language                    : English
    Default                     : Yes
    Forced                      : No
    Color range                 : Limited
    Color primaries             : BT.709
    Transfer characteristics    : BT.709
    Matrix coefficients         : BT.709

    Audio #1
    ID                          : 2
    Format                      : AC-3
    Format/Info                 : Audio Coding 3
    Commercial name             : Dolby Digital
    Codec ID                    : A_AC3
    Duration                    : 1 h 33 min
    Bit rate mode               : Constant
    Bit rate                    : 448 kb/s
    Channel(s)                  : 6 channels
    Channel layout              : L R C LFE Ls Rs
    Sampling rate               : 48.0 kHz
    Frame rate                  : 31.250 FPS (1536 SPF)
    Compression mode            : Lossy
    Stream size                 : 300 MiB (6%)
    Title                       : Español Latino [CinemaniaHDD]
    Language                    : Spanish
    Service kind                : Complete Main
    Default                     : Yes
    Forced                      : No

    Audio #2
    ID                          : 3
    Format                      : E-AC-3
    Format/Info                 : Enhanced AC-3
    Commercial name             : Dolby Digital Plus
    Codec ID                    : A_EAC3
    Duration                    : 1 h 33 min
    Bit rate mode               : Constant
    Bit rate                    : 640 kb/s
    Channel(s)                  : 6 channels
    Channel layout              : L R C LFE Ls Rs
    Sampling rate               : 48.0 kHz
    Frame rate                  : 31.250 FPS (1536 SPF)
    Compression mode            : Lossy
    Stream size                 : 428 MiB (8%)
    Title                       : Ingles [CinemaniaHDD]
    Language                    : English
    Service kind                : Complete Main
    Default                     : No
    Forced                      : No

  • Peso: 5.03 GiB

Sinopsis

Descargar Las aventuras de Maurice (2022) AMZN WEB-DL 1080p Latino. Maurice, un gato callejero, tiene el timo perfecto para ganar dinero. Encuentra a un niño que toca la flauta y se hace amigo de su horda de ratas que hablan, así no las ve como si fueran comida. Cuando Maurice y los roedores llegan al pueblo de Bad Blintz, encuentran a Malicia. Su timo no llega a buen puerto por culpa de lo que les espera en el sótano.

Ficha técnica

Video trailer de la película

Enlaces de descarga

Rip de Bluray

Descargar Las aventuras de Maurice (2022) AMZN WEB-DL 1080p Latino




Aportes de DPeliculasHDmega la pass es:dpeliculashdmega.org Aportes de CinemaniaHD la pass es:cinemaniahdd.com Aportes recientes:cinemaniahdd.net

Películas relacionadas

descargar Las aventuras de Maurice (2022) AMZN WEB-DL 1080p Latino WEBDL 1080p gratis, Las aventuras de Maurice (2022) AMZN WEB-DL 1080p Latino WEBDL mega 1 link, Las aventuras de Maurice (2022) AMZN WEB-DL 1080p Latino WEBDL pelicula completa, descargar Las aventuras de Maurice (2022) AMZN WEB-DL 1080p Latino WEBDL gratis en mega.

Las aventuras de Maurice (2022) AMZN WEB-DL 1080p Latino pelicula full hd, Las aventuras de Maurice (2022) AMZN WEB-DL 1080p Latino mega latino, Las aventuras de Maurice (2022) AMZN WEB-DL 1080p Latino 4k latino, Las aventuras de Maurice (2022) AMZN WEB-DL 1080p Latino pelicula completa, Las aventuras de Maurice (2022) AMZN WEB-DL 1080p Latino descargar gratis, descargar Las aventuras de Maurice (2022) AMZN WEB-DL 1080p Latino pelicula latino, Las aventuras de Maurice (2022) AMZN WEB-DL 1080p Latino 1 link mega, Las aventuras de Maurice (2022) AMZN WEB-DL 1080p Latino 1 link google drive, Las aventuras de Maurice (2022) AMZN WEB-DL 1080p Latino hd 1080p latino.
Comentarios 0