×

¿Problemas para descargar con Mozilla, EDGE? Deshabilita la opción "Abrir vinculos en una pestaña nueva" tal como lo muestra ésta imagen.

Las Aventuras de Lady Marian (2022) REMUX 1080i Latino

34 vistas

Información de Las Aventuras de Lady Marian (2022) REMUX 1080i Latino

Datos de la película

  • Calidad: Full 1080p
  • Audio: Español Latino AC3 2.0 WEB-DL - Ingles DTS 5.1 BLURAY
  • Subtitulos: Español Latino SRT- FORZADOS SRT
  • Resolución: 1920x1080p
  • Formato: MKV
  • Codec: H.264
  • Encoder: Melkor
  • Mediainfo: Clic para Mostrar Datos Ver
  • Las Aventuras de Lady Marian (2022) REMUX 1080i Latino.mkv
    Format                      : Matroska
    Format version              : Version 4
    File size                   : 13.8 GiB
    Duration                    : 1 h 22 min
    Overall bit rate mode       : Variable
    Overall bit rate            : 23.8 Mb/s
    Movie name                  : The Adventures of Maid Marian (2022) CinemaniaHDD.Net
    Encoded date                : UTC 2024-03-28 19:59:10
    Writing application         : mkvmerge v56.1.0 ('My Friend') 64-bit
    Writing library             : libebml v1.4.2 + libmatroska v1.6.4
    Attachments                 : CINEMANIAHD.png
    Site                        : CinemaniaHDD.Net
    Uploader                    : Melkor

    Video
    ID                          : 1
    ID in the original source m : 4113 (0x1011)
    Format                      : AVC
    Format/Info                 : Advanced Video Codec
    Format profile              : High@L4.1
    Format settings             : CABAC / 2 Ref Frames
    Format settings, CABAC      : Yes
    Format settings, Reference  : 2 frames
    Codec ID                    : V_MPEG4/ISO/AVC
    Duration                    : 1 h 22 min
    Bit rate mode               : Variable
    Bit rate                    : 22.1 Mb/s
    Maximum bit rate            : 30.2 Mb/s
    Width                       : 1 920 pixels
    Height                      : 1 080 pixels
    Display aspect ratio        : 16:9
    Frame rate mode             : Constant
    Frame rate                  : 25.000 FPS
    Color space                 : YUV
    Chroma subsampling          : 4:2:0
    Bit depth                   : 8 bits
    Scan type                   : MBAFF
    Scan type, store method     : Interleaved fields
    Scan order                  : Top Field First
    Bits/(Pixel*Frame)          : 0.426
    Stream size                 : 12.7 GiB (93%)
    Title                       : REMUX HD1080p [CinemaniaHDD]
    Language                    : English
    Default                     : Yes
    Forced                      : Yes
    Original source medium      : Blu-ray

    Audio #1
    ID                          : 2
    Format                      : AC-3
    Format/Info                 : Audio Coding 3
    Commercial name             : Dolby Digital
    Codec ID                    : A_AC3
    Duration                    : 1 h 22 min
    Bit rate mode               : Constant
    Bit rate                    : 256 kb/s
    Channel(s)                  : 2 channels
    Channel layout              : L R
    Sampling rate               : 48.0 kHz
    Frame rate                  : 31.250 FPS (1536 SPF)
    Compression mode            : Lossy
    Stream size                 : 151 MiB (1%)
    Title                       : Español Latino [CinemaniaHDD]
    Language                    : Spanish
    Service kind                : Complete Main
    Default                     : Yes
    Forced                      : Yes

    Audio #2
    ID                          : 3
    ID in the original source m : 4353 (0x1101)
    Format                      : DTS XLL
    Format/Info                 : Digital Theater Systems
    Commercial name             : DTS-HD Master Audio
    Codec ID                    : A_DTS
    Duration                    : 1 h 22 min
    Bit rate mode               : Variable
    Bit rate                    : 1 499 kb/s
    Channel(s)                  : 6 channels
    Channel layout              : C L R Ls Rs LFE
    Sampling rate               : 48.0 kHz
    Frame rate                  : 93.750 FPS (512 SPF)
    Bit depth                   : 16 bits
    Compression mode            : Lossless
    Stream size                 : 885 MiB (6%)
    Title                       : Ingles [CinemaniaHDD]
    Language                    : English
    Default                     : No
    Forced                      : No
    Original source medium      : Blu-ray

    Text #1
    ID                          : 4
    Format                      : UTF-8
    Codec ID                    : S_TEXT/UTF8
    Codec ID/Info               : UTF-8 Plain Text
    Duration                    : 1 h 19 min
    Bit rate                    : 1 b/s
    Count of elements           : 14
    Stream size                 : 651 Bytes (0%)
    Title                       : Forzados-SRT [CinemaniaHDD]
    Language                    : Spanish
    Default                     : Yes
    Forced                      : Yes

    Text #2
    ID                          : 5
    Format                      : UTF-8
    Codec ID                    : S_TEXT/UTF8
    Codec ID/Info               : UTF-8 Plain Text
    Duration                    : 1 h 19 min
    Bit rate                    : 43 b/s
    Count of elements           : 838
    Stream size                 : 25.2 KiB (0%)
    Title                       : Español-SRT [CinemaniaHDD]
    Language                    : Spanish
    Default                     : No
    Forced                      : No

    Text #3
    ID                          : 6
    Format                      : UTF-8
    Codec ID                    : S_TEXT/UTF8
    Codec ID/Info               : UTF-8 Plain Text
    Duration                    : 1 h 16 min
    Bit rate                    : 40 b/s
    Count of elements           : 848
    Stream size                 : 23.0 KiB (0%)
    Title                       : Ingles [CinemaniaHDD]
    Language                    : English
    Default                     : No
    Forced                      : No

    Menu
    00:00:00.000                : Chapter 01
    00:06:27.800                : Chapter 02
    00:14:37.280                : Chapter 03
    00:23:36.400                : Chapter 04
    00:32:21.880                : Chapter 05
    00:40:04.240                : Chapter 06
    00:45:38.480                : Chapter 07
    00:52:34.760                : Chapter 08
    01:02:00.200                : Chapter 09
    01:11:02.720                : Chapter 10
    01:16:26.760                : Chapter 11
    01:20:22.200                : Chapter 12

  • Peso: 13.8 GiB

Sinopsis

Descargar Las Aventuras de Lady Marian (2022) REMUX 1080i Latino. Después de tres años de esconderse en un remoto priorato, Marian recibe la noticia de que el rey Ricardo Corazón de León ha muerto. Su amado Robin Hood regresa de la guerra. Al salir de su santuario, se apresura a encontrarse con él, pero descubren que no todo es lo que parece.

Ficha técnica

Video trailer de la película

Enlaces de descarga

Rip de Bluray

Descargar Las Aventuras de Lady Marian (2022) REMUX 1080i Latino




Aportes de DPeliculasHDmega la pass es:dpeliculashdmega.org Aportes de CinemaniaHD la pass es:cinemaniahdd.com Aportes recientes:cinemaniahdd.net
Guardado en : Acción , Aventura , Remux

Películas relacionadas

descargar Las Aventuras de Lady Marian (2022) REMUX 1080i Latino Full 1080p 1080p gratis, Las Aventuras de Lady Marian (2022) REMUX 1080i Latino Full 1080p mega 1 link, Las Aventuras de Lady Marian (2022) REMUX 1080i Latino Full 1080p pelicula completa, descargar Las Aventuras de Lady Marian (2022) REMUX 1080i Latino Full 1080p gratis en mega.

Las Aventuras de Lady Marian (2022) REMUX 1080i Latino pelicula full hd, Las Aventuras de Lady Marian (2022) REMUX 1080i Latino mega latino, Las Aventuras de Lady Marian (2022) REMUX 1080i Latino 4k latino, Las Aventuras de Lady Marian (2022) REMUX 1080i Latino pelicula completa, Las Aventuras de Lady Marian (2022) REMUX 1080i Latino descargar gratis, descargar Las Aventuras de Lady Marian (2022) REMUX 1080i Latino pelicula latino, Las Aventuras de Lady Marian (2022) REMUX 1080i Latino 1 link mega, Las Aventuras de Lady Marian (2022) REMUX 1080i Latino 1 link google drive, Las Aventuras de Lady Marian (2022) REMUX 1080i Latino hd 1080p latino.
Comentarios 0