×

¿Problemas para descargar con Mozilla, EDGE? Deshabilita la opción "Abrir vinculos en una pestaña nueva" tal como lo muestra ésta imagen.

La era de hielo: las aventuras de Buck (2022) D+ Web-DL 1080p Latino

1.219 vistas

Información de La era de hielo: las aventuras de Buck (2022) D+ Web-DL 1080p Latino

Datos de la película

  • Calidad: WEBDL
  • Audio: Español Latino AC3 5.1 WEB-DL - Ingles AC3 5.1 WEB-DL
  • Subtitulos: Español Latino SRT- FORZADOS SRT
  • Resolución: 1920x1080p
  • Formato: MKV
  • Codec: H.264
  • Encoder: Melkor
  • Mediainfo: Clic para Mostrar Datos Ver
  • Las aventuras de Buck (2022) D+ WebDL 1080p Latino.mkv
    Format                      : Matroska
    Format version              : Version 4
    File size                   : 4.99 GiB
    Duration                    : 1 h 21 min
    Overall bit rate mode       : Variable
    Overall bit rate            : 8 817 kb/s
    Movie name                  : The Ice Age Adventures of Buck Wild (2022) CinemaniaHDD.Net
    Encoded date                : UTC 2022-01-28 22:32:51
    Writing application         : mkvmerge v56.1.0 ('My Friend') 64-bit
    Writing library             : libebml v1.4.2 + libmatroska v1.6.4
    Attachments                 : CINEMANIAHD.png

    Video
    ID                          : 1
    Format                      : AVC
    Format/Info                 : Advanced Video Codec
    Format profile              : High@L4
    Format settings             : CABAC / 4 Ref Frames
    Format settings, CABAC      : Yes
    Format settings, Reference  : 4 frames
    Codec ID                    : V_MPEG4/ISO/AVC
    Duration                    : 1 h 21 min
    Bit rate mode               : Variable
    Bit rate                    : 7 342 kb/s
    Maximum bit rate            : 12.7 Mb/s
    Width                       : 1 920 pixels
    Height                      : 1 080 pixels
    Display aspect ratio        : 16:9
    Frame rate mode             : Constant
    Frame rate                  : 23.976 (24000/1001) FPS
    Color space                 : YUV
    Chroma subsampling          : 4:2:0
    Bit depth                   : 8 bits
    Scan type                   : Progressive
    Bits/(Pixel*Frame)          : 0.148
    Stream size                 : 4.16 GiB (83%)
    Title                       : Web HD1080p [CinemaniaHDD]
    Language                    : English
    Default                     : Yes
    Forced                      : Yes
    Color range                 : Limited
    Color primaries             : BT.709
    Transfer characteristics    : BT.709
    Matrix coefficients         : BT.709

    Audio #1
    ID                          : 2
    Format                      : AC-3
    Format/Info                 : Audio Coding 3
    Commercial name             : Dolby Digital
    Codec ID                    : A_AC3
    Duration                    : 1 h 21 min
    Bit rate mode               : Constant
    Bit rate                    : 448 kb/s
    Channel(s)                  : 6 channels
    Channel layout              : L R C LFE Ls Rs
    Sampling rate               : 48.0 kHz
    Frame rate                  : 31.250 FPS (1536 SPF)
    Compression mode            : Lossy
    Stream size                 : 260 MiB (5%)
    Title                       : Español Latino AC3 [CinemaniaHDD]
    Language                    : Spanish
    Service kind                : Complete Main
    Default                     : Yes
    Forced                      : Yes

    Audio #2
    ID                          : 3
    Format                      : E-AC-3 JOC
    Format/Info                 : Enhanced AC-3 with Joint Object Coding
    Commercial name             : Dolby Digital Plus with Dolby Atmos
    Codec ID                    : A_EAC3
    Duration                    : 1 h 21 min
    Bit rate mode               : Constant
    Bit rate                    : 768 kb/s
    Channel(s)                  : 6 channels
    Channel layout              : L R C LFE Ls Rs
    Sampling rate               : 48.0 kHz
    Frame rate                  : 31.250 FPS (1536 SPF)
    Compression mode            : Lossy
    Stream size                 : 445 MiB (9%)
    Title                       : Ingles [CinemaniaHDD]
    Language                    : English
    Service kind                : Complete Main
    Default                     : No
    Forced                      : No
    Complexity index            : 16
    Number of dynamic objects   : 15
    Bed channel count           : 1 channel
    Bed channel configuration   : LFE

    Audio #3
    ID                          : 4
    Format                      : E-AC-3
    Format/Info                 : Enhanced AC-3
    Commercial name             : Dolby Digital Plus
    Codec ID                    : A_EAC3
    Duration                    : 1 h 21 min
    Bit rate mode               : Constant
    Bit rate                    : 256 kb/s
    Channel(s)                  : 6 channels
    Channel layout              : L R C LFE Ls Rs
    Sampling rate               : 48.0 kHz
    Frame rate                  : 31.250 FPS (1536 SPF)
    Compression mode            : Lossy
    Stream size                 : 148 MiB (3%)
    Title                       : Español Latino EAC3 [CinemaniaHDD]
    Language                    : Spanish
    Service kind                : Complete Main
    Default                     : No
    Forced                      : No

    Text #1
    ID                          : 5
    Format                      : UTF-8
    Codec ID                    : S_TEXT/UTF8
    Codec ID/Info               : UTF-8 Plain Text
    Duration                    : 1 h 20 min
    Bit rate                    : 48 b/s
    Count of elements           : 900
    Stream size                 : 28.6 KiB (0%)
    Title                       : Forzados-SRT [CinemaniaHDD]
    Language                    : Spanish
    Default                     : Yes
    Forced                      : Yes

    Text #2
    ID                          : 6
    Format                      : UTF-8
    Codec ID                    : S_TEXT/UTF8
    Codec ID/Info               : UTF-8 Plain Text
    Duration                    : 1 h 15 min
    Bit rate                    : 0 b/s
    Count of elements           : 6
    Stream size                 : 165 Bytes (0%)
    Title                       : Español-SRT [CinemaniaHDD]
    Language                    : Spanish
    Default                     : No
    Forced                      : No

    Text #3
    ID                          : 7
    Format                      : UTF-8
    Codec ID                    : S_TEXT/UTF8
    Codec ID/Info               : UTF-8 Plain Text
    Duration                    : 1 h 17 min
    Bit rate                    : 74 b/s
    Count of elements           : 1365
    Stream size                 : 42.1 KiB (0%)
    Title                       : Ingles-SRT [CinemaniaHDD]
    Language                    : English
    Default                     : No
    Forced                      : No

  • Peso: 4.99 GiB

Sinopsis

Descargar La era de hielo: las aventuras de Buck (2022) D+ Web-DL 1080p Latino. Buck, la intrépida comadreja tuerta, se une a los traviesos hermanos zarigüeya Crash y Eddie para emprender una nueva aventura en la casa de Buck: el mundo de los dinosaurios.

Ficha técnica

Video trailer de la película

Enlaces de descarga

Rip de Bluray

Descargar La era de hielo: las aventuras de Buck (2022) D+ Web-DL 1080p Latino




Aportes de DPeliculasHDmega la pass es:dpeliculashdmega.org Aportes de CinemaniaHD la pass es:cinemaniahdd.com
Guardado en : Animación , Aventura , Comedia , Familia

Películas relacionadas

descargar La era de hielo: las aventuras de Buck (2022) D+ Web-DL 1080p Latino WEBDL 1080p gratis, La era de hielo: las aventuras de Buck (2022) D+ Web-DL 1080p Latino WEBDL mega 1 link, La era de hielo: las aventuras de Buck (2022) D+ Web-DL 1080p Latino WEBDL pelicula completa, descargar La era de hielo: las aventuras de Buck (2022) D+ Web-DL 1080p Latino WEBDL gratis en mega.

La era de hielo: las aventuras de Buck (2022) D+ Web-DL 1080p Latino pelicula full hd, La era de hielo: las aventuras de Buck (2022) D+ Web-DL 1080p Latino mega latino, La era de hielo: las aventuras de Buck (2022) D+ Web-DL 1080p Latino 4k latino, La era de hielo: las aventuras de Buck (2022) D+ Web-DL 1080p Latino pelicula completa, La era de hielo: las aventuras de Buck (2022) D+ Web-DL 1080p Latino descargar gratis, descargar La era de hielo: las aventuras de Buck (2022) D+ Web-DL 1080p Latino pelicula latino, La era de hielo: las aventuras de Buck (2022) D+ Web-DL 1080p Latino 1 link mega, La era de hielo: las aventuras de Buck (2022) D+ Web-DL 1080p Latino 1 link google drive, La era de hielo: las aventuras de Buck (2022) D+ Web-DL 1080p Latino hd 1080p latino.
Comentarios 0